<?xml version="1.0" standalone="no"?>
<!DOCTYPE svg PUBLIC "-//W3C//DTD SVG 1.1//EN" "http://www.w3.org/Graphics/SVG/1.1/DTD/svg11.dtd" >
<svg xmlns="http://www.w3.org/2000/svg" xmlns:xlink="http://www.w3.org/1999/xlink" version="1.1">
<metadata>
Created by FontForge 20160407 at Fri Oct  7 08:36:57 2016
 By Jimmy Warting
KeyFonts/Professional v3.10 TM SoftKey Software Products, Inc.  All Rights Reserved.  Redistribution strictly prohibited.  Copyright (c) 1992 W.S.I.
</metadata>
<defs>
<font id="LetterGothic" horiz-adv-x="600" >
  <font-face 
    font-family="Letter Gothic"
    font-weight="5"
    font-stretch="normal"
    units-per-em="1000"
    panose-1="0 0 0 0 0 0 0 0 0 0"
    ascent="800"
    descent="-200"
    x-height="530"
    cap-height="721"
    bbox="0 -288 2896 946"
    underline-thickness="50"
    underline-position="-125"
    unicode-range="U+0020-F002"
  />
<missing-glyph horiz-adv-x="800" 
d="M50 0v800h700v-800h-700zM700 50v700h-600v-700h600z" />
    <glyph glyph-name=".notdef" horiz-adv-x="800" 
d="M50 0v800h700v-800h-700zM700 50v700h-600v-700h600z" />
    <glyph glyph-name=".null" horiz-adv-x="0" 
 />
    <glyph glyph-name="nonmarkingreturn" 
 />
    <glyph glyph-name="space" unicode=" " 
 />
    <glyph glyph-name="exclam" unicode="!" 
d="M335 721l-13 -494h-40l-17 494h70zM365 53q0 -27 -20 -47t-48 -20t-47.5 19.5t-19.5 47.5t19 48t48 20q28 0 48 -20t20 -48z" />
    <glyph glyph-name="quotedbl" unicode="&#x22;" 
d="M427 610l-27 -136h-40l-27 136v111h94v-111zM268 610l-27 -136h-40l-27 136v111h94v-111z" />
    <glyph glyph-name="numbersign" unicode="#" 
d="M571 484l-9 -44h-135l-28 -157h135l-8 -44h-135l-62 -335h-45l165 902h44l-58 -322h136zM311 806l-162 -902h-45l61 335h-134l8 44h134l28 157h-134l8 44h134l58 322h44z" />
    <glyph glyph-name="dollar" unicode="$" 
d="M470 220q0 -69 -40.5 -109.5t-109.5 -46.5v-95h-47v95q-43 0 -82.5 18.5t-74.5 52.5l29 35q35 -32 64.5 -49t63.5 -17v260q-60 19 -99.5 59.5t-39.5 101.5q0 58 41 98t98 47v73h47v-73q39 -4 75 -19.5t69 -43.5l-28 -37q-28 26 -56 41.5t-60 18.5v-232q72 -25 111 -66
t39 -112zM273 409v219q-39 -6 -65.5 -35.5t-26.5 -70.5q0 -39 27 -68.5t65 -44.5zM423 218q0 48 -28 82.5t-75 53.5v-250q44 0 73.5 33.5t29.5 80.5z" />
    <glyph glyph-name="percent" unicode="%" 
d="M326 631q0 -82 -43 -133t-101 -51q-49 0 -72.5 28.5t-23.5 78.5q0 70 40.5 125.5t107.5 55.5q48 0 70 -27t22 -77zM506 735l-369 -735h-42l368 735h43zM515 172q0 -80 -44 -131.5t-101 -51.5q-49 0 -72.5 28.5t-23.5 77.5q0 70 38.5 125.5t104.5 55.5q49 0 73.5 -27.5
t24.5 -76.5zM282 639q0 29 -12 47.5t-40 18.5q-49 0 -74.5 -52t-25.5 -107q0 -32 11.5 -50.5t42.5 -18.5q47 0 72.5 54.5t25.5 107.5zM470 180q0 29 -12 47.5t-40 18.5q-49 0 -74.5 -52t-25.5 -107q0 -32 11.5 -50t42.5 -18q47 0 72.5 54t25.5 107z" />
    <glyph glyph-name="ampersand" unicode="&#x26;" 
d="M530 18l-34 -34l-78 93q-32 -44 -74 -67.5t-95 -23.5q-72 0 -117.5 41.5t-45.5 113.5q0 82 35.5 133.5t91.5 120.5q-43 71 -56.5 109t-13.5 74q0 65 31.5 111t95.5 46q48 0 80 -39t32 -92q0 -68 -30 -110t-80 -102l141 -230q9 31 13 68t4 125h50q0 -75 -8.5 -130
t-28.5 -105zM332 608q0 33 -18 60t-50 27q-36 0 -53.5 -33t-17.5 -73q0 -46 12 -78.5t41 -81.5q63 97 74.5 116t11.5 63zM394 112l-156 238q-53 -67 -77.5 -109.5t-24.5 -96.5q0 -53 29.5 -85.5t82.5 -32.5q48 0 85 22t61 64z" />
    <glyph glyph-name="quotesingle" unicode="'" 
d="M338 615l-27 -136h-40l-27 136v111h94v-111z" />
    <glyph glyph-name="parenleft" unicode="(" 
d="M395 -40l-22 -29q-92 64 -138.5 173.5t-46.5 231.5t46.5 232.5t138.5 174.5l22 -30q-83 -63 -121.5 -162t-38.5 -215t38 -214t122 -162z" />
    <glyph glyph-name="parenright" unicode=")" 
d="M412 336q0 -121 -46 -231t-139 -174l-22 29q83 63 121.5 162t38.5 214q0 118 -37.5 216t-122.5 161l22 30q92 -63 138.5 -174t46.5 -233z" />
    <glyph glyph-name="asterisk" unicode="*" 
d="M524 538l-196 -57l124 -157l-33 -26l-119 151l-116 -151l-34 26l121 157l-194 57l12 42l189 -56v197h43v-197l190 56z" />
    <glyph glyph-name="plus" unicode="+" 
d="M567 338h-245v-244h-44v244h-244v44h244v245h44v-245h245v-44z" />
    <glyph glyph-name="comma" unicode="," 
d="M379 32q0 -51 -40 -89.5t-94 -53.5v42q27 8 48 22.5t30 36.5l-19 -3q-27 0 -44 17t-17 45q0 29 19 47t47 18q31 0 50.5 -24.5t19.5 -57.5z" />
    <glyph glyph-name="hyphen" unicode="-" 
d="M513 339h-446v40h441z" />
    <glyph glyph-name="period" unicode="." 
d="M368 53q0 -27 -20 -47t-48 -20t-47.5 19.5t-19.5 47.5t19 48t48 20q28 0 48 -20t20 -48z" />
    <glyph glyph-name="slash" unicode="/" 
d="M471 748l-296 -775h-46l296 775h46z" />
    <glyph glyph-name="zero" unicode="0" 
d="M498 360q0 -78 -4 -131t-22.5 -109t-62.5 -95t-109 -39q-63 0 -106 36.5t-60 85t-24.5 104.5t-7.5 148q0 78 4 131t22.5 110t62 95.5t109.5 38.5q63 0 106 -36.5t62.5 -92t24.5 -112.5t5 -134zM451 360q0 75 -3 119t-17 93.5t-46.5 86.5t-84.5 37q-54 0 -87.5 -40
t-45 -88.5t-15 -102.5t-3.5 -105q0 -75 3 -118.5t17 -93.5t46.5 -86.5t84.5 -36.5q54 0 87.5 40t45 87.5t15 102t3.5 105.5z" />
    <glyph glyph-name="one" unicode="1" 
d="M459 0h-317v40h137v643l-144 -45v44l191 61v-703h133v-40z" />
    <glyph glyph-name="two" unicode="2" 
d="M493 0h-383q0 121 31.5 184.5t126 145.5t135 130t40.5 110q0 57 -33 91t-91 34q-67 0 -106 -44t-39 -110h-47q0 85 52.5 139.5t140.5 54.5q78 0 124 -45t46 -123q0 -69 -39 -118.5t-134 -134t-127.5 -140t-32.5 -134.5h336v-40z" />
    <glyph glyph-name="three" unicode="3" 
d="M503 199q0 -92 -60 -151t-154 -59q-70 0 -117 30t-88 94l42 25q25 -53 64 -81t97 -28q76 0 122 43t46 118q0 88 -54.5 133.5t-139.5 45.5v40q67 0 114 43t47 110q0 55 -41 94t-97 39q-49 0 -87.5 -26.5t-62.5 -72.5l-40 22q30 54 81 85.5t113 31.5q75 0 128 -53t53 -127
q0 -56 -30.5 -97t-84.5 -65q70 -22 109.5 -72.5t39.5 -121.5z" />
    <glyph glyph-name="four" unicode="4" 
d="M513 193h-103v-193h-47v193h-293v35l266 507h74v-502h103v-40zM363 233v469l-242 -469h242z" />
    <glyph glyph-name="five" unicode="5" 
d="M494 219q0 -95 -54 -162.5t-147 -67.5q-55 0 -99.5 29t-78.5 79l35 27q23 -41 63.5 -68t85.5 -27q65 0 106.5 54.5t41.5 131.5q0 97 -45 142.5t-96 45.5q-43 0 -75 -21.5t-56 -60.5l-56 11l29 389h301v-40h-260l-24 -313q27 36 62 55.5t78 19.5q79 0 134 -59.5t55 -164.5
z" />
    <glyph glyph-name="six" unicode="6" 
d="M501 230q0 -100 -53 -170.5t-151 -70.5q-83 0 -137.5 73t-54.5 242q0 208 78.5 319.5t185.5 111.5q62 0 119 -37l-23 -40q-23 16 -48 26.5t-50 10.5q-104 0 -159.5 -119t-55.5 -237q31 54 72 82.5t99 28.5q84 0 131 -66t47 -154zM453 230q0 75 -34 127.5t-105 52.5
q-55 0 -105.5 -54t-50.5 -145q0 -71 36 -126.5t104 -55.5q79 0 117 59t38 142z" />
    <glyph glyph-name="seven" unicode="7" 
d="M481 721l-277 -721h-52l269 681h-318v40h378z" />
    <glyph glyph-name="eight" unicode="8" 
d="M521 190q0 -94 -57.5 -147.5t-163.5 -53.5q-108 0 -164 54t-56 147q0 69 30.5 116t95.5 70q-48 21 -75.5 68t-27.5 102q0 86 54.5 137.5t142.5 51.5t141 -51t53 -138q0 -56 -26 -102.5t-74 -67.5q127 -45 127 -186zM447 546q0 69 -40 109t-108 40q-71 0 -110 -41
t-39 -115q0 -65 41.5 -104.5t107.5 -39.5q69 0 108.5 40.5t39.5 110.5zM473 190q0 76 -47.5 120.5t-125.5 44.5q-76 0 -124.5 -44.5t-48.5 -120.5t47.5 -118.5t125.5 -42.5t125.5 42t47.5 119z" />
    <glyph glyph-name="nine" unicode="9" 
d="M495 416q0 -75 -10.5 -139t-40.5 -130.5t-85.5 -112t-127.5 -45.5q-66 0 -120 34l23 40q21 -15 48.5 -24.5t50.5 -9.5q103 0 159 117t56 235q-32 -53 -73 -82t-98 -29q-85 0 -131.5 65.5t-46.5 153.5q0 102 53 174t151 72q55 0 93.5 -29t60.5 -76.5t30 -100.5t8 -113z
M442 510q0 73 -36 129t-105 56q-79 0 -117 -60t-38 -145q0 -74 34.5 -127t105.5 -53q32 0 61.5 17.5t52 46.5t32.5 63t10 73z" />
    <glyph glyph-name="colon" unicode=":" 
d="M367 404q0 -27 -20 -47t-48 -20t-47.5 19.5t-19.5 47.5t19 48t48 20q28 0 48 -20t20 -48zM367 53q0 -27 -20 -47t-48 -20t-47.5 19.5t-19.5 47.5t19 48t48 20q28 0 48 -20t20 -48z" />
    <glyph glyph-name="semicolon" unicode=";" 
d="M378 404q0 -27 -20 -47t-48 -20t-47.5 19.5t-19.5 47.5t19 48t48 20q28 0 48 -20t20 -48zM379 32q0 -51 -40 -89.5t-94 -53.5v42q27 8 48 22.5t30 36.5l-19 -3q-27 0 -44 17t-17 45q0 29 19 47t47 18q31 0 50.5 -24.5t19.5 -57.5z" />
    <glyph glyph-name="less" unicode="&#x3c;" 
d="M503 32l-26 -32l-379 360l379 361l26 -32l-341 -329z" />
    <glyph glyph-name="equal" unicode="=" 
d="M567 405h-533v44h533v-44zM567 271h-533v44h533v-44z" />
    <glyph glyph-name="greater" unicode="&#x3e;" 
d="M503 360l-380 -360l-25 32l340 328l-340 329l25 32z" />
    <glyph glyph-name="question" unicode="?" 
d="M463 563q0 -54 -19.5 -85t-65 -67t-53 -53.5t-7.5 -72.5v-61h-47v98q0 17 1.5 29.5t7.5 26t28 34t50 42.5t43 48t15 64q0 58 -32.5 93.5t-90.5 35.5q-51 0 -84 -31t-33 -82h-50q0 70 47.5 111.5t120.5 41.5q79 0 124 -46t45 -126zM370 53q0 -27 -20 -47t-48 -20
t-47.5 19.5t-19.5 47.5t19 48t48 20q28 0 48 -20t20 -48z" />
    <glyph glyph-name="at" unicode="@" 
d="M597 432q0 -88 -38.5 -165.5t-116.5 -77.5q-30 0 -55 15.5t-33 43.5q-19 -27 -46 -44.5t-59 -17.5q-38 0 -61 26t-23 65q0 43 16.5 93.5t42.5 83t71 45t98 12.5h32l-26 -157q-6 -35 -6 -58q0 -39 14 -53t36 -14q54 0 80.5 65t26.5 130q0 134 -71 202.5t-153 68.5
q-132 0 -203 -125.5t-71 -269.5q0 -141 69.5 -207.5t161.5 -66.5q60 0 114 21t119 63l17 -45q-58 -36 -124 -57.5t-131 -21.5q-109 0 -191 78.5t-82 233.5q0 176 88 306.5t228 130.5q113 0 194.5 -83.5t81.5 -219.5zM373 470q-25 0 -51.5 -8.5t-48.5 -25.5t-41.5 -66.5
t-19.5 -86.5q0 -22 11 -39.5t31 -17.5q33 0 62 39.5t47 137.5z" />
    <glyph glyph-name="A" unicode="A" 
d="M543 0h-54l-65 219h-245l-66 -219h-52l240 750l164 -512zM414 259l-113 363l-112 -363h225z" />
    <glyph glyph-name="B" unicode="B" 
d="M506 190q0 -81 -48.5 -135.5t-132.5 -54.5h-206v721h176q80 0 129 -47t49 -129q0 -58 -30 -99t-85 -65q71 -20 109.5 -69t38.5 -122zM426 548q0 63 -34 98t-119 35h-107v-286h73q92 0 139.5 40.5t47.5 112.5zM458 188q0 68 -45.5 117.5t-122.5 49.5h-124v-315h151
q52 0 96.5 38t44.5 110z" />
    <glyph glyph-name="C" unicode="C" 
d="M503 156q-8 -80 -57 -125t-130 -45q-98 0 -159 84.5t-61 279.5q0 98 16.5 181t68 143.5t145.5 60.5q66 0 113 -42t53 -108h-47q0 47 -35 78.5t-84 31.5q-77 0 -116.5 -54.5t-51.5 -129.5t-12 -156q0 -82 11.5 -153t49.5 -123.5t113 -52.5q57 0 96 37t39 93h48z" />
    <glyph glyph-name="D" unicode="D" 
d="M520 360q0 -119 -19 -184.5t-43 -100t-64.5 -55t-104.5 -20.5h-166v721h180q60 0 103 -28t65.5 -69.5t35.5 -106.5t13 -157zM469 360q0 81 -5.5 137t-29.5 103.5t-65.5 64t-109.5 16.5h-89v-641h89q70 0 113 18t64 66.5t27 109t6 126.5z" />
    <glyph glyph-name="E" unicode="E" 
d="M511 0h-360v721h353v-40h-306v-291h219v-40h-219v-310h313v-40z" />
    <glyph glyph-name="F" unicode="F" 
d="M530 681h-323v-285h242v-40h-242v-356h-47v721h370v-40z" />
    <glyph glyph-name="G" unicode="G" 
d="M523 -14h-48v114q-18 -53 -64.5 -83.5t-104.5 -30.5q-95 0 -150.5 78.5t-55.5 272.5q0 224 56.5 311t159.5 87q79 0 123 -49t51 -130h-50q0 57 -31.5 98t-87.5 41q-109 0 -140 -99.5t-31 -241.5q0 -135 29 -231.5t131 -96.5q67 0 116 52.5t49 170.5v58h-173v40h221v-361z
" />
    <glyph glyph-name="H" unicode="H" 
d="M489 0h-47v354h-285v-354h-47v721h47v-327h285v327h47v-721z" />
    <glyph glyph-name="I" unicode="I" 
d="M423 0h-247v40h100v641h-100v40h247v-40h-100v-641h100v-40z" />
    <glyph glyph-name="J" unicode="J" 
d="M459 228q0 -129 -46.5 -185.5t-147.5 -56.5q-90 0 -135 54t-45 177v77h47v-103q0 -86 31.5 -125.5t100.5 -39.5q74 0 111 44t37 121v490h-136v40h183v-493z" />
    <glyph glyph-name="K" unicode="K" 
d="M562 0h-66l-285 350h-24v-350h-47v721h47v-331q55 0 98 48.5t90 117.5t85 168l50 -26l-87 -145q-39 -65 -78 -110.5t-92 -76.5z" />
    <glyph glyph-name="L" unicode="L" 
d="M533 0h-364v721h47v-681h317v-40z" />
    <glyph glyph-name="M" unicode="M" 
d="M517 0h-48v626l-169 -401l-167 401l-2 -2v-624h-47v721h52l164 -397l164 397h53v-721z" />
    <glyph glyph-name="N" unicode="N" 
d="M487 -7h-49l-264 663l-2 -2v-654h-47v721h68l245 -618l2 2v616h47v-728z" />
    <glyph glyph-name="O" unicode="O" 
d="M512 360q0 -212 -56.5 -293t-155.5 -81t-156.5 80t-57.5 294q0 104 14.5 183.5t62 135.5t137.5 56q139 0 175.5 -109.5t36.5 -265.5zM461 360q0 187 -42 261t-119 74q-82 0 -123 -77.5t-41 -257.5q0 -187 43.5 -260.5t120.5 -73.5q78 0 119.5 75t41.5 259z" />
    <glyph glyph-name="P" unicode="P" 
d="M506 506q0 -104 -59.5 -158.5t-163.5 -54.5h-91v-293h-47v721h162q104 0 151.5 -61.5t47.5 -153.5zM455 505q0 93 -41.5 134.5t-103.5 41.5h-118v-348h84q92 0 135.5 45.5t43.5 126.5z" />
    <glyph glyph-name="Q" unicode="Q" 
d="M517 -62h-60l-55 78q-45 -30 -102 -30q-102 0 -158 87t-56 287q0 199 55.5 287t158.5 88q100 0 157.5 -85t57.5 -290q0 -107 -14.5 -185.5t-65.5 -131.5zM464 360q0 187 -44 261t-120 74q-106 0 -135 -97.5t-29 -237.5q0 -137 28.5 -235.5t135.5 -98.5q109 0 136.5 104
t27.5 230z" />
    <glyph glyph-name="R" unicode="R" 
d="M562 0h-59l-180 311h-132v-311h-47v721h171q89 0 140.5 -54.5t51.5 -143.5q0 -70 -37.5 -125t-102.5 -76zM456 527q0 68 -34.5 111t-106.5 43h-124v-330h117q57 0 102.5 44t45.5 132z" />
    <glyph glyph-name="S" unicode="S" 
d="M507 186q0 -92 -56 -146t-149 -54q-62 0 -112.5 27t-90.5 79l36 29q29 -42 73 -68.5t94 -26.5q64 0 109 42t45 106q0 54 -23 85t-118 88l-67 40q-63 38 -96.5 77.5t-33.5 99.5q0 79 52.5 125t133.5 46q50 0 96 -21.5t87 -59.5l-28 -35q-43 37 -78.5 56.5t-79.5 19.5
q-57 0 -95 -35t-38 -91q0 -43 24 -76t89 -72l59 -36q93 -54 130 -95.5t37 -103.5z" />
    <glyph glyph-name="T" unicode="T" 
d="M532 681h-209v-681h-47v681h-207v40h463v-40z" />
    <glyph glyph-name="U" unicode="U" 
d="M488 185q0 -98 -58.5 -148.5t-129.5 -50.5q-76 0 -133 55t-57 133v547h47v-512q0 -97 39 -140t104 -43t103 41t38 126v528h47v-536z" />
    <glyph glyph-name="V" unicode="V" 
d="M495 721l-157 -728h-76l-163 728h55l145 -688l142 688h54z" />
    <glyph glyph-name="W" unicode="W" 
d="M521 721l-57 -728h-63l-105 362l-104 -362h-63l-56 728h55l42 -644l126 400l125 -400l44 644h56z" />
    <glyph glyph-name="X" unicode="X" 
d="M496 0h-56l-141 319l-139 -319h-56l174 364l-169 357h56l135 -312l135 312h56l-167 -358z" />
    <glyph glyph-name="Y" unicode="Y" 
d="M486 721l-181 -416v-305h-47v305l-181 416h53l151 -361l152 361h53z" />
    <glyph glyph-name="Z" unicode="Z" 
d="M504 0h-391v40l313 641h-302v40h355v-40l-310 -641h335v-40z" />
    <glyph glyph-name="bracketleft" unicode="[" horiz-adv-x="602" 
d="M448 -88h-268v831h268v-40h-221v-751h221v-40z" />
    <glyph glyph-name="backslash" unicode="\" horiz-adv-x="602" 
d="M471 -27h-46l-296 775h46z" />
    <glyph glyph-name="bracketright" unicode="]" horiz-adv-x="602" 
d="M422 -88h-268v40h221v751h-221v40h268v-831z" />
    <glyph glyph-name="asciicircum" unicode="^" horiz-adv-x="602" 
d="M487 357h-50l-137 276l-140 -276h-50l164 324h52z" />
    <glyph glyph-name="underscore" unicode="_" horiz-adv-x="602" 
d="M601 -108h-601v36h601v-36z" />
    <glyph glyph-name="grave" unicode="`" horiz-adv-x="602" 
d="M376 605l-22 -30l-174 118l37 42z" />
    <glyph glyph-name="a" unicode="a" 
d="M466 -5l-43 -6q-15 45 -20 90q-32 -45 -64 -67.5t-81 -22.5q-70 0 -108.5 48t-38.5 120q0 80 42.5 134t116.5 54q32 0 63.5 -9.5t65.5 -25.5q0 105 -22 148t-86 43q-31 0 -59.5 -9t-67.5 -27l-11 44q40 16 72.5 24t68.5 8q72 0 112 -49t40 -138l-6 -216q0 -38 6 -68
t20 -75zM396 136v137q-26 13 -56 22.5t-59 9.5q-62 0 -92.5 -43.5t-30.5 -108.5q0 -50 26 -87t74 -37q45 0 76.5 28t61.5 79z" />
    <glyph glyph-name="b" unicode="b" 
d="M512 268q0 -141 -63.5 -210t-142.5 -69q-46 0 -83 23t-58 64l-19 -87l-44 6q13 43 18.5 90t5.5 101v557h47v-248q55 46 130 46q73 0 141 -65.5t68 -207.5zM464 265q0 128 -55 182t-118 54q-32 0 -60.5 -14t-57.5 -39v-313q23 -49 53 -77.5t79 -28.5q58 0 108.5 56.5
t50.5 179.5z" />
    <glyph glyph-name="c" unicode="c" 
d="M510 433l-43 -28q-23 44 -58 70t-82 26q-64 0 -117 -53.5t-53 -180.5q0 -125 52 -181.5t121 -56.5q40 0 76.5 23t67.5 60l33 -34q-41 -44 -82 -66.5t-94 -22.5q-86 0 -153.5 63t-67.5 207q0 147 64.5 214.5t152.5 67.5q58 0 102.5 -27.5t80.5 -80.5z" />
    <glyph glyph-name="d" unicode="d" 
d="M496 -5l-44 -6l-19 87q-44 -87 -141 -87q-79 0 -142 69t-63 210q0 142 67 207.5t141 65.5q75 0 130 -46v248h47v-557q0 -60 4.5 -101t19.5 -90zM425 135v313q-26 23 -57 38t-61 15q-63 0 -118 -53.5t-55 -182.5q0 -122 50.5 -179t108.5 -57q48 0 80.5 29t51.5 77z" />
    <glyph glyph-name="e" unicode="e" 
d="M507 257h-363q0 -127 47 -177.5t120 -50.5q44 0 84 13t83 39l20 -44q-52 -23 -96.5 -35.5t-92.5 -12.5q-108 0 -160 79.5t-52 193.5t53 196.5t162 82.5q80 0 137.5 -66.5t57.5 -217.5zM459 297q0 78 -40 141t-113 63t-117.5 -63.5t-44.5 -140.5h315z" />
    <glyph glyph-name="f" unicode="f" 
d="M527 652q-33 15 -65.5 29t-60.5 14q-102 0 -111 -108v-94h175v-40h-175v-453h-47v453h-136v40h136v61q0 94 44.5 137.5t108.5 43.5q30 0 62.5 -9t68.5 -24v-50z" />
    <glyph glyph-name="g" unicode="g" 
d="M501 541q-14 -53 -19 -112t-5 -132v-36v-220q0 -106 -58.5 -158t-130.5 -52q-39 0 -82.5 20.5t-71.5 50.5l33 29q23 -28 57.5 -44t72.5 -16q52 0 93.5 42.5t41.5 133.5v65q-28 -29 -68.5 -47t-80.5 -18q-89 0 -136 71t-47 165q0 105 47 181.5t147 76.5q41 0 72.5 -15
t71.5 -47l14 62h49zM430 168v255q-24 34 -61 56t-77 22q-74 0 -109.5 -64t-35.5 -145q0 -110 46.5 -157.5t93.5 -47.5q40 0 81 23t62 58z" />
    <glyph glyph-name="h" unicode="h" 
d="M481 0h-47v332q0 70 -17.5 119.5t-69.5 49.5q-66 0 -118 -71.5t-52 -163.5v-266h-47v743h47v-329q28 55 74.5 91t103.5 36q46 0 86 -38.5t40 -117.5v-385z" />
    <glyph glyph-name="i" unicode="i" 
d="M364 683q0 -22 -15 -37t-38 -15q-22 0 -37 15t-15 37t15 37t37 15q21 0 37 -15t16 -37zM336 0h-47v489h-154v41h201v-530z" />
    <glyph glyph-name="j" unicode="j" 
d="M424 683q0 -22 -15 -37t-38 -15q-22 0 -37 15t-15 37t15 37t37 15q21 0 37 -15t16 -37zM401 1q0 -72 -45 -121t-114 -49q-82 0 -119 56t-37 141h47q0 -74 23.5 -115.5t84.5 -41.5q50 0 81.5 33.5t31.5 81.5v503h-159v41h206v-529z" />
    <glyph glyph-name="k" unicode="k" 
d="M534 0h-64l-221 261l-50 -49v-212h-47v743h47v-475q69 66 124.5 128.5t103.5 133.5h61q-121 -146 -132.5 -159t-78.5 -83z" />
    <glyph glyph-name="l" unicode="l" 
d="M329 0h-47v703h-156v40h203v-743z" />
    <glyph glyph-name="m" unicode="m" 
d="M539 0h-48v427q0 40 -16.5 57.5t-46.5 17.5t-55 -19.5t-42 -49.5v-433h-47v406q0 41 -10.5 68t-45.5 27q-32 0 -61 -23t-43 -55v-423h-47v369q0 52 -4.5 91.5t-14.5 80.5h48l13 -70q23 34 54 52t70 18q30 0 50 -17t32 -48q23 30 49.5 47.5t59.5 17.5q50 0 77.5 -30.5
t27.5 -81.5v-429z" />
    <glyph glyph-name="n" unicode="n" 
d="M476 0h-47v355q0 67 -14 106.5t-68 39.5q-68 0 -123.5 -71t-55.5 -212v-218h-47v265q0 103 -5.5 161t-15.5 110h44l19 -153q17 62 72 110t118 48q65 0 94 -47.5t29 -116.5v-377z" />
    <glyph glyph-name="o" unicode="o" 
d="M511 265q0 -146 -61.5 -211t-142.5 -65q-80 0 -141 64.5t-61 211.5q0 142 59.5 209t142.5 67q81 0 142.5 -64.5t61.5 -211.5zM463 265q0 97 -34 166.5t-122 69.5q-87 0 -121 -69t-34 -167t34 -167t121 -69q88 0 122 69t34 167z" />
    <glyph glyph-name="p" unicode="p" 
d="M512 261q0 -141 -68 -206.5t-141 -65.5q-74 0 -130 45v-246h-47v556q0 59 -4.5 100t-19.5 91l44 6l19 -88q44 88 141 88q79 0 142.5 -69t63.5 -211zM464 264q0 123 -50.5 180t-108.5 57q-48 0 -79 -29t-53 -78v-313q28 -24 56.5 -38t61.5 -14q62 0 117.5 53.5t55.5 181.5
z" />
    <glyph glyph-name="q" unicode="q" 
d="M496 535q-12 -41 -17.5 -92t-5.5 -99v-556h-47v246q-57 -45 -131 -45q-73 0 -140.5 65t-67.5 207t63 211t142 69q97 0 141 -88l19 88zM426 81v313q-24 51 -54 79t-79 28q-59 0 -109 -56.5t-50 -180.5q0 -128 55 -181.5t118 -53.5q31 0 61 14t58 38z" />
    <glyph glyph-name="r" unicode="r" 
d="M506 380h-48q0 52 -13 86.5t-55 34.5q-54 0 -114 -76t-60 -210v-215h-47v366l-19 170h45l18 -151q33 68 76 112t105 44q60 0 86 -47.5t26 -113.5z" />
    <glyph glyph-name="s" unicode="s" 
d="M465 129q0 -63 -47.5 -101.5t-111.5 -38.5q-47 0 -104 25t-95 60l26 38q36 -36 82.5 -59.5t92.5 -23.5q47 0 78.5 25t31.5 72q0 52 -31 77t-100 51.5t-110.5 58.5t-41.5 95q0 55 47 94t108 39q43 0 82 -14.5t77 -42.5l-20 -39q-36 26 -70.5 41t-71.5 15q-41 0 -73 -28
t-32 -69t32 -65t99 -49.5t109.5 -59t42.5 -101.5z" />
    <glyph glyph-name="t" unicode="t" 
d="M510 112q-28 -56 -71 -89.5t-100 -33.5q-59 0 -94 37t-35 130v333h-119v41h119v170h47v-170h194v-41h-194v-361q0 -44 19 -71.5t65 -27.5q42 0 73 26t50 68z" />
    <glyph glyph-name="u" unicode="u" 
d="M502 0h-45l-20 150q-17 -62 -72.5 -111.5t-116.5 -49.5q-65 0 -94 48.5t-29 118.5v374h47v-352q0 -149 82 -149q67 0 123 74.5t56 211.5v215h47v-262q0 -106 5.5 -160.5t16.5 -107.5z" />
    <glyph glyph-name="v" unicode="v" 
d="M493 530l-167 -537h-55l-167 537h50l144 -466l145 466h50z" />
    <glyph glyph-name="w" unicode="w" 
d="M541 530l-95 -537h-51l-100 342l-100 -342h-51l-94 537h52l73 -458l95 321h51l93 -321l75 458h52z" />
    <glyph glyph-name="x" unicode="x" 
d="M532 0h-64l-169 252l-167 -252h-63l205 284l-165 246h55l136 -209l133 209h52l-160 -244z" />
    <glyph glyph-name="y" unicode="y" 
d="M513 530l-199 -504q-34 -88 -69.5 -141.5t-96.5 -53.5q-43 0 -75 28.5t-47 72.5l40 21q12 -34 32 -58t50 -24q34 0 54 26t41 73l40 91l-172 469h52l143 -407l152 407h55z" />
    <glyph glyph-name="z" unicode="z" 
d="M498 0h-396v40l328 449h-283v41h339v-41l-325 -449h337v-40z" />
    <glyph glyph-name="braceleft" unicode="{" horiz-adv-x="602" 
d="M413 -86l-2 -2q-84 0 -114 31t-30 114v151q0 56 -14 80t-66 37q51 14 65.5 38.5t14.5 79.5v162q0 78 32 108t112 30l2 -2q-57 -9 -78 -38.5t-21 -89.5v-162q0 -58 -15 -85t-69 -39q52 -14 68 -43.5t16 -86.5v-156q0 -58 21.5 -89.5t77.5 -37.5z" />
    <glyph glyph-name="bar" unicode="|" horiz-adv-x="602" 
d="M322 -288h-44v1081h44v-1081z" />
    <glyph glyph-name="braceright" unicode="}" horiz-adv-x="602" 
d="M334 211v-161q0 -78 -32 -108t-112 -30l-2 2q57 9 78 38.5t21 89.5v161q0 58 15 85t69 39q-52 14 -68 43.5t-16 86.5v157q0 58 -21.5 89.5t-77.5 37.5l2 2q84 0 114 -31t30 -114v-152q0 -56 14 -80t66 -37q-51 -14 -65.5 -38.5t-14.5 -79.5z" />
    <glyph glyph-name="asciitilde" unicode="~" horiz-adv-x="602" 
d="M571 418q-25 -47 -65 -80.5t-86 -33.5q-30 0 -123 37.5t-117 37.5q-41 0 -64 -24t-55 -76l-31 23q30 53 64 87t81 34q44 0 132 -37.5t112 -37.5q36 0 69 27.5t51 65.5z" />
    <glyph glyph-name="Adieresis" unicode="&#xc4;" 
d="M232 852q18 0 31 -11t13 -29t-11 -31t-29 -13t-31 11t-13 29t11 31t29 13zM376 852q18 0 31 -11t13 -29t-11 -31t-29 -13t-31 11t-13 29t11 31t29 13zM543 0h-54l-65 219h-245l-66 -219h-52l240 750l164 -512zM414 259l-113 363l-112 -363h225z" />
    <glyph glyph-name="Aring" unicode="&#xc5;" 
d="M543 0h-54l-65 219h-245l-66 -219h-52l240 750l164 -512zM414 259l-113 363l-112 -363h225zM355 842q0 -21 -14 -36t-35 -15t-36 13t-15 35q0 21 14 36t35 15t36 -14t15 -34zM337 842q0 12 -10 21t-23 9q-31 0 -31 -33q0 -14 9.5 -23.5t23.5 -9.5q13 0 22 11t9 25z" />
    <glyph glyph-name="Ccedilla" unicode="&#xc7;" 
d="M298 -1q-114 11 -156 117t-42 246q0 98 16.5 181t68 143.5t145.5 60.5q66 0 113 -42t53 -108h-47q0 47 -35 78.5t-84 31.5q-77 0 -116.5 -54.5t-51.5 -129.5t-12 -156q0 -82 11.5 -153t49.5 -123.5t113 -52.5q57 0 96 37t39 93h48q-8 -77 -54.5 -123.5t-119.5 -46.5
l-14 -36q17 3 31 3q37 0 59.5 -18.5t22.5 -50.5q0 -38 -32 -61.5t-94 -23.5q-21 0 -41 3.5t-41 12.5l13 32l16 -5l46 -7q58 0 58 42q0 38 -43 38q-15 0 -24 -1.5l-15 -2.5l-6 5z" />
    <glyph glyph-name="Eacute" unicode="&#xc9;" 
d="M511 0h-360v721h353v-40h-306v-291h219v-40h-219v-310h313v-40zM525 877l-174 -118l-22 30l159 130z" />
    <glyph glyph-name="Ntilde" unicode="&#xd1;" 
d="M487 -7h-49l-264 663l-2 -2v-654h-47v721h68l245 -618l2 2v616h47v-728zM334 842l27 -12l21 -3q24 0 37 14.5t20 35.5h29q0 -13 -4.5 -25.5t-16.5 -33t-25 -26.5t-46 -6q-18 -1 -27 -1q-8 0 -15.5 2t-22 11t-23.5 11l-23 7l-24 7l-24 3q-8 0 -13.5 -4t-16 -16.5
t-20.5 -34.5h-30q12 52 41.5 76.5t64.5 24.5q14 0 31 -4.5t19.5 -5.5t16.5 -9z" />
    <glyph glyph-name="Odieresis" unicode="&#xd6;" 
d="M512 360q0 -212 -56.5 -293t-155.5 -81t-156.5 80t-57.5 294q0 104 14.5 183.5t62 135.5t137.5 56q139 0 175.5 -109.5t36.5 -265.5zM461 360q0 187 -42 261t-119 74q-82 0 -123 -77.5t-41 -257.5q0 -187 43.5 -260.5t120.5 -73.5q78 0 119.5 75t41.5 259zM235 852
q18 0 31 -11t13 -29t-11 -31t-29 -13t-31 11t-13 29t11 31t29 13zM379 852q18 0 31 -11t13 -29t-11 -31t-29 -13t-31 11t-13 29t11 31t29 13z" />
    <glyph glyph-name="Udieresis" unicode="&#xdc;" 
d="M488 185q0 -98 -58.5 -148.5t-129.5 -50.5q-76 0 -133 55t-57 133v547h47v-512q0 -97 39 -140t104 -43t103 41t38 126v528h47v-536zM227 849q18 0 31 -11t13 -29t-11 -31t-29 -13t-31 11t-13 29t11 31t29 13zM371 849q18 0 31 -11t13 -29t-11 -31t-29 -13t-31 11t-13 29
t11 31t29 13z" />
    <glyph glyph-name="aacute" unicode="&#xe1;" 
d="M466 -5l-43 -6q-15 45 -20 90q-32 -45 -64 -67.5t-81 -22.5q-70 0 -108.5 48t-38.5 120q0 80 42.5 134t116.5 54q32 0 63.5 -9.5t65.5 -25.5q0 105 -22 148t-86 43q-31 0 -59.5 -9t-67.5 -27l-11 44q40 16 72.5 24t68.5 8q72 0 112 -49t40 -138l-6 -216q0 -38 6 -68
t20 -75zM396 136v137q-26 13 -56 22.5t-59 9.5q-62 0 -92.5 -43.5t-30.5 -108.5q0 -50 26 -87t74 -37q45 0 76.5 28t61.5 79zM483 708l-174 -118l-22 30l159 130z" />
    <glyph glyph-name="agrave" unicode="&#xe0;" 
d="M466 -5l-43 -6q-15 45 -20 90q-32 -45 -64 -67.5t-81 -22.5q-70 0 -108.5 48t-38.5 120q0 80 42.5 134t116.5 54q32 0 63.5 -9.5t65.5 -25.5q0 105 -22 148t-86 43q-31 0 -59.5 -9t-67.5 -27l-11 44q40 16 72.5 24t68.5 8q72 0 112 -49t40 -138l-6 -216q0 -38 6 -68
t20 -75zM396 136v137q-26 13 -56 22.5t-59 9.5q-62 0 -92.5 -43.5t-30.5 -108.5q0 -50 26 -87t74 -37q45 0 76.5 28t61.5 79zM296 630l-22 -30l-174 118l37 42z" />
    <glyph glyph-name="acircumflex" unicode="&#xe2;" 
d="M466 -5l-43 -6q-15 45 -20 90q-32 -45 -64 -67.5t-81 -22.5q-70 0 -108.5 48t-38.5 120q0 80 42.5 134t116.5 54q32 0 63.5 -9.5t65.5 -25.5q0 105 -22 148t-86 43q-31 0 -59.5 -9t-67.5 -27l-11 44q40 16 72.5 24t68.5 8q72 0 112 -49t40 -138l-6 -216q0 -38 6 -68
t20 -75zM396 136v137q-26 13 -56 22.5t-59 9.5q-62 0 -92.5 -43.5t-30.5 -108.5q0 -50 26 -87t74 -37q45 0 76.5 28t61.5 79zM377 590h-29l-53 97h-23l-41 -97h-28l59 131h41z" />
    <glyph glyph-name="adieresis" unicode="&#xe4;" 
d="M466 -5l-43 -6q-15 45 -20 90q-32 -45 -64 -67.5t-81 -22.5q-70 0 -108.5 48t-38.5 120q0 80 42.5 134t116.5 54q32 0 63.5 -9.5t65.5 -25.5q0 105 -22 148t-86 43q-31 0 -59.5 -9t-67.5 -27l-11 44q40 16 72.5 24t68.5 8q72 0 112 -49t40 -138l-6 -216q0 -38 6 -68
t20 -75zM396 136v137q-26 13 -56 22.5t-59 9.5q-62 0 -92.5 -43.5t-30.5 -108.5q0 -50 26 -87t74 -37q45 0 76.5 28t61.5 79zM227 674q18 0 31 -11t13 -29t-11 -31t-29 -13t-31 11t-13 29t11 31t29 13zM371 674q18 0 31 -11t13 -29t-11 -31t-29 -13t-31 11t-13 29t11 31
t29 13z" />
    <glyph glyph-name="atilde" unicode="&#xe3;" 
d="M466 -5l-43 -6q-15 45 -20 90q-32 -45 -64 -67.5t-81 -22.5q-70 0 -108.5 48t-38.5 120q0 80 42.5 134t116.5 54q32 0 63.5 -9.5t65.5 -25.5q0 105 -22 148t-86 43q-31 0 -59.5 -9t-67.5 -27l-11 44q40 16 72.5 24t68.5 8q72 0 112 -49t40 -138l-6 -216q0 -38 6 -68
t20 -75zM396 136v137q-26 13 -56 22.5t-59 9.5q-62 0 -92.5 -43.5t-30.5 -108.5q0 -50 26 -87t74 -37q45 0 76.5 28t61.5 79zM316 633l27 -12l21 -3q24 0 37 14.5t20 35.5h29q0 -13 -4.5 -25.5t-16.5 -33t-25 -26.5t-46 -6q-18 -1 -27 -1q-8 0 -15.5 2t-22 11t-23.5 11
l-23 7l-24 7l-24 3q-8 0 -13.5 -4t-16 -16.5t-20.5 -34.5h-30q12 52 41.5 76.5t64.5 24.5q14 0 31 -4.5t19.5 -5.5t16.5 -9z" />
    <glyph glyph-name="aring" unicode="&#xe5;" 
d="M466 -5l-43 -6q-15 45 -20 90q-32 -45 -64 -67.5t-81 -22.5q-70 0 -108.5 48t-38.5 120q0 80 42.5 134t116.5 54q32 0 63.5 -9.5t65.5 -25.5q0 105 -22 148t-86 43q-31 0 -59.5 -9t-67.5 -27l-11 44q40 16 72.5 24t68.5 8q72 0 112 -49t40 -138l-6 -216q0 -38 6 -68
t20 -75zM396 136v137q-26 13 -56 22.5t-59 9.5q-62 0 -92.5 -43.5t-30.5 -108.5q0 -50 26 -87t74 -37q45 0 76.5 28t61.5 79zM356 656q0 -27 -17.5 -45.5t-43.5 -18.5t-45 17t-19 43q0 27 17.5 45.5t43.5 18.5t45 -17t19 -43zM334 656q0 16 -12 27t-30 11q-16 0 -27 -12
t-11 -30q0 -16 12.5 -28.5t28.5 -12.5t27.5 13.5t11.5 31.5z" />
    <glyph glyph-name="ccedilla" unicode="&#xe7;" 
d="M305 -5q-80 10 -137.5 73.5t-57.5 195.5q0 147 64.5 214.5t152.5 67.5q58 0 102.5 -27.5t80.5 -80.5l-43 -28q-23 44 -58 70t-82 26q-64 0 -117 -53.5t-53 -180.5q0 -125 52 -181.5t121 -56.5q40 0 76.5 23t67.5 60l33 -34q-41 -43 -78.5 -66t-84.5 -23l2 -15
q3 -11 15.5 -22t16.5 -17.5t10 -16t6 -19.5q0 -26 -23.5 -44t-69.5 -18q-15 0 -30.5 2.5t-29.5 9.5l9 23l12 -4q13 -5 34 -5q42 0 42 31q0 15 -6 20t-13 17.5t-10 26t-3.5 21t-0.5 11.5z" />
    <glyph glyph-name="eacute" unicode="&#xe9;" 
d="M507 257h-363q0 -127 47 -177.5t120 -50.5q44 0 84 13t83 39l20 -44q-52 -23 -96.5 -35.5t-92.5 -12.5q-108 0 -160 79.5t-52 193.5t53 196.5t162 82.5q80 0 137.5 -66.5t57.5 -217.5zM459 297q0 78 -40 141t-113 63t-117.5 -63.5t-44.5 -140.5h315zM493 688l-174 -118
l-22 30l159 130z" />
    <glyph glyph-name="egrave" unicode="&#xe8;" 
d="M507 257h-363q0 -127 47 -177.5t120 -50.5q44 0 84 13t83 39l20 -44q-52 -23 -96.5 -35.5t-92.5 -12.5q-108 0 -160 79.5t-52 193.5t53 196.5t162 82.5q80 0 137.5 -66.5t57.5 -217.5zM459 297q0 78 -40 141t-113 63t-117.5 -63.5t-44.5 -140.5h315zM341 600l-22 -30
l-174 118l37 42z" />
    <glyph glyph-name="ecircumflex" unicode="&#xea;" 
d="M507 257h-363q0 -127 47 -177.5t120 -50.5q44 0 84 13t83 39l20 -44q-52 -23 -96.5 -35.5t-92.5 -12.5q-108 0 -160 79.5t-52 193.5t53 196.5t162 82.5q80 0 137.5 -66.5t57.5 -217.5zM459 297q0 78 -40 141t-113 63t-117.5 -63.5t-44.5 -140.5h315zM397 585h-29l-53 97
h-23l-41 -97h-28l59 131h41z" />
    <glyph glyph-name="edieresis" unicode="&#xeb;" 
d="M440 619q0 -20 -13.5 -33.5t-33.5 -13.5t-34 13t-14 34q0 20 14 34t34 14q19 0 33 -14t14 -34zM269 619q0 -20 -13.5 -33.5t-33.5 -13.5t-34 13t-14 34q0 20 14 34t34 14q19 0 33 -14t14 -34zM501 263h-363q0 -127 47 -177.5t120 -50.5q44 0 84 13t83 39l20 -44
q-52 -23 -96.5 -35.5t-92.5 -12.5q-108 0 -160 79.5t-52 193.5t53 196.5t162 82.5q80 0 137.5 -66.5t57.5 -217.5zM453 303q0 78 -40 141t-113 63t-117.5 -63.5t-44.5 -140.5h315z" />
    <glyph glyph-name="iacute" unicode="&#xed;" 
d="M371 5h-47v489h-154v41h201v-530zM448 693l-174 -118l-22 30l159 130z" />
    <glyph glyph-name="igrave" unicode="&#xec;" 
d="M336 0h-47v489h-154v41h201v-530zM241 605l-22 -30l-174 118l37 42z" />
    <glyph glyph-name="icircumflex" unicode="&#xee;" 
d="M336 0h-47v489h-154v41h201v-530zM332 610h-29l-53 97h-23l-41 -97h-28l59 131h41z" />
    <glyph glyph-name="idieresis" unicode="&#xef;" 
d="M336 0h-47v489h-154v41h201v-530zM177 689q18 0 31 -11t13 -29t-11 -31t-29 -13t-31 11t-13 29t11 31t29 13zM321 689q18 0 31 -11t13 -29t-11 -31t-29 -13t-31 11t-13 29t11 31t29 13z" />
    <glyph glyph-name="ntilde" unicode="&#xf1;" 
d="M476 0h-47v355q0 67 -14 106.5t-68 39.5q-68 0 -123.5 -71t-55.5 -212v-218h-47v265q0 103 -5.5 161t-15.5 110h44l19 -153q17 62 72 110t118 48q65 0 94 -47.5t29 -116.5v-377zM331 688l27 -12l21 -3q24 0 37 14.5t20 35.5h29q0 -13 -4.5 -25.5t-16.5 -33t-25 -26.5
t-46 -6q-18 -1 -27 -1q-8 0 -15.5 2t-22 11t-23.5 11l-23 7l-24 7l-24 3q-8 0 -13.5 -4t-16 -16.5t-20.5 -34.5h-30q12 52 41.5 76.5t64.5 24.5q14 0 31 -4.5t19.5 -5.5t16.5 -9z" />
    <glyph glyph-name="oacute" unicode="&#xf3;" 
d="M511 265q0 -146 -61.5 -211t-142.5 -65q-80 0 -141 64.5t-61 211.5q0 142 59.5 209t142.5 67q81 0 142.5 -64.5t61.5 -211.5zM463 265q0 97 -34 166.5t-122 69.5q-87 0 -121 -69t-34 -167t34 -167t121 -69q88 0 122 69t34 167zM493 693l-174 -118l-22 30l159 130z" />
    <glyph glyph-name="ograve" unicode="&#xf2;" 
d="M511 265q0 -146 -61.5 -211t-142.5 -65q-80 0 -141 64.5t-61 211.5q0 142 59.5 209t142.5 67q81 0 142.5 -64.5t61.5 -211.5zM463 265q0 97 -34 166.5t-122 69.5q-87 0 -121 -69t-34 -167t34 -167t121 -69q88 0 122 69t34 167zM311 610l-22 -30l-174 118l37 42z" />
    <glyph glyph-name="ocircumflex" unicode="&#xf4;" 
d="M511 265q0 -146 -61.5 -211t-142.5 -65q-80 0 -141 64.5t-61 211.5q0 142 59.5 209t142.5 67q81 0 142.5 -64.5t61.5 -211.5zM463 265q0 97 -34 166.5t-122 69.5q-87 0 -121 -69t-34 -167t34 -167t121 -69q88 0 122 69t34 167zM402 585h-29l-53 97h-23l-41 -97h-28
l59 131h41z" />
    <glyph glyph-name="odieresis" unicode="&#xf6;" 
d="M511 265q0 -146 -61.5 -211t-142.5 -65q-80 0 -141 64.5t-61 211.5q0 142 59.5 209t142.5 67q81 0 142.5 -64.5t61.5 -211.5zM463 265q0 97 -34 166.5t-122 69.5q-87 0 -121 -69t-34 -167t34 -167t121 -69q88 0 122 69t34 167zM237 669q18 0 31 -11t13 -29t-11 -31
t-29 -13t-31 11t-13 29t11 31t29 13zM381 669q18 0 31 -11t13 -29t-11 -31t-29 -13t-31 11t-13 29t11 31t29 13z" />
    <glyph glyph-name="otilde" unicode="&#xf5;" 
d="M511 265q0 -146 -61.5 -211t-142.5 -65q-80 0 -141 64.5t-61 211.5q0 142 59.5 209t142.5 67q81 0 142.5 -64.5t61.5 -211.5zM463 265q0 97 -34 166.5t-122 69.5q-87 0 -121 -69t-34 -167t34 -167t121 -69q88 0 122 69t34 167zM346 643l27 -12l21 -3q24 0 37 14.5
t20 35.5h29q0 -13 -4.5 -25.5t-16.5 -33t-25 -26.5t-46 -6q-18 -1 -27 -1q-8 0 -15.5 2t-22 11t-23.5 11l-23 7l-24 7l-24 3q-8 0 -13.5 -4t-16 -16.5t-20.5 -34.5h-30q12 52 41.5 76.5t64.5 24.5q14 0 31 -4.5t19.5 -5.5t16.5 -9z" />
    <glyph glyph-name="uacute" unicode="&#xfa;" 
d="M493 688l-174 -118l-22 30l159 130zM502 0h-45l-20 150q-17 -62 -72.5 -111.5t-116.5 -49.5q-65 0 -94 48.5t-29 118.5v374h47v-352q0 -149 82 -149q67 0 123 74.5t56 211.5v215h47v-262q0 -106 5.5 -160.5t16.5 -107.5z" />
    <glyph glyph-name="ugrave" unicode="&#xf9;" 
d="M502 0h-45l-20 150q-17 -62 -72.5 -111.5t-116.5 -49.5q-65 0 -94 48.5t-29 118.5v374h47v-352q0 -149 82 -149q67 0 123 74.5t56 211.5v215h47v-262q0 -106 5.5 -160.5t16.5 -107.5zM321 590l-22 -30l-174 118l37 42z" />
    <glyph glyph-name="ucircumflex" unicode="&#xfb;" 
d="M392 590h-29l-53 97h-23l-41 -97h-28l59 131h41zM502 0h-45l-20 150q-17 -62 -72.5 -111.5t-116.5 -49.5q-65 0 -94 48.5t-29 118.5v374h47v-352q0 -149 82 -149q67 0 123 74.5t56 211.5v215h47v-262q0 -106 5.5 -160.5t16.5 -107.5z" />
    <glyph glyph-name="udieresis" unicode="&#xfc;" 
d="M502 0h-45l-20 150q-17 -62 -72.5 -111.5t-116.5 -49.5q-65 0 -94 48.5t-29 118.5v374h47v-352q0 -149 82 -149q67 0 123 74.5t56 211.5v215h47v-262q0 -106 5.5 -160.5t16.5 -107.5zM227 659q18 0 31 -11t13 -29t-11 -31t-29 -13t-31 11t-13 29t11 31t29 13zM371 659
q18 0 31 -11t13 -29t-11 -31t-29 -13t-31 11t-13 29t11 31t29 13z" />
    <glyph glyph-name="dagger" unicode="&#x2020;" horiz-adv-x="602" 
d="M455 467l-132 8l7 -99l-10 -376h-40l-10 376l7 99l-132 -8v55l132 -7l-8 206h62l-8 -206l132 7v-55z" />
    <glyph glyph-name="degree" unicode="&#xb0;" 
d="M379 606q0 -30 -21.5 -51.5t-52.5 -21.5q-30 0 -52 21t-22 52t21 53t53 22q30 0 52 -22t22 -53zM350 602q0 19 -13 32t-32 13t-32 -13t-13 -32q0 -18 13 -31t32 -13t32 13t13 31z" />
    <glyph glyph-name="cent" unicode="&#xa2;" horiz-adv-x="602" 
d="M512 542l-46 -30q-19 40 -48.5 65t-70.5 31v-470q36 5 66 26t61 56l33 -34q-35 -35 -76 -58.5t-84 -29.5v-138h-47v138q-97 15 -143.5 89t-46.5 180q0 113 44 188.5t146 92.5v95h47v-95q49 0 89.5 -28.5t75.5 -77.5zM300 139v468q-78 -15 -110.5 -78.5t-32.5 -153.5
t32 -154.5t111 -81.5z" />
    <glyph glyph-name="sterling" unicode="&#xa3;" horiz-adv-x="602" 
d="M539 43q-19 -21 -44.5 -34.5t-52.5 -13.5q-20 0 -30.5 3t-43.5 14q-22 9 -38 13.5t-38 4.5q-31 0 -60 -11t-61 -30l-28 38q51 87 67.5 127t16.5 73q0 35 -7.5 73.5t-21.5 85.5h-115v40h104q-14 44 -20.5 75t-6.5 65q0 73 51 121t124 48q59 0 107.5 -28.5t73.5 -81.5
l-46 -15q-20 40 -53.5 62.5t-76.5 22.5q-56 0 -94.5 -36.5t-38.5 -99.5q0 -28 6 -54t21 -79h200v-40h-188q17 -67 22.5 -99t5.5 -53q0 -49 -19 -91t-57 -98l2 -2q36 17 55.5 22t40.5 5q45 0 70 -11t42 -17.5t29 -6.5q19 0 35 9t41 30z" />
    <glyph glyph-name="section" unicode="&#xa7;" horiz-adv-x="602" 
d="M486 280q0 -38 -20.5 -66t-56.5 -46q38 -38 38 -87q0 -61 -40 -96t-102 -35q-73 0 -115 40t-42 116h46q0 -56 26 -86t81 -30q42 0 70.5 21t28.5 62q0 37 -19.5 58.5t-65.5 56.5l-59 46q-75 57 -109 89.5t-34 80.5q0 38 20.5 66t56.5 47q-37 37 -37 87q0 62 39.5 96.5
t102.5 34.5q71 0 114 -40t43 -116h-47q0 56 -25.5 86t-80.5 30q-42 0 -70.5 -21t-28.5 -62q0 -39 17 -58t67 -58l60 -46q76 -59 109 -91t33 -79zM439 273q0 22 -9.5 38.5t-28.5 34.5l-185 146q-26 -9 -41 -31t-15 -50q0 -21 10 -38.5t28 -34.5l186 -146q25 9 40 31t15 50z
" />
    <glyph glyph-name="bullet" unicode="&#x2022;" horiz-adv-x="602" 
d="M423 252q0 -51 -36 -87t-87 -36q-52 0 -87.5 35.5t-35.5 87.5q0 51 36 87t87 36t87 -36t36 -87z" />
    <glyph glyph-name="paragraph" unicode="&#xb6;" horiz-adv-x="602" 
d="M544 681h-47v-512v-282h-47v511v283h-125v-512v-282h-47v446q-94 0 -157.5 51t-63.5 142q0 74 47 134.5t193 60.5h247v-40z" />
    <glyph glyph-name="germandbls" unicode="&#xdf;" horiz-adv-x="602" 
d="M489 188q0 -98 -43.5 -148.5t-110.5 -50.5q-42 0 -79 27l21 34q14 -9 29.5 -15t32.5 -6q47 0 75 42.5t28 111.5q0 95 -45.5 138t-132.5 43v40q64 0 106.5 43.5t42.5 110.5q0 56 -32.5 96.5t-87.5 40.5q-46 0 -72 -32t-26 -88v-512v-63h-47v512v70q0 53 41.5 103t108.5 50
q73 0 117.5 -52.5t44.5 -128.5q0 -54 -27 -96t-75 -70q69 -23 100 -73t31 -127z" />
    <glyph glyph-name="registered" unicode="&#xae;" horiz-adv-x="602" 
d="M601 361q0 -156 -87.5 -265.5t-212.5 -109.5t-213 109t-88 266q0 155 88 264.5t213 109.5q124 0 212 -109.5t88 -264.5zM561 361q0 138 -75.5 236t-184.5 98t-185 -98t-76 -236q0 -139 75.5 -237t185.5 -98q108 0 184 98.5t76 236.5zM453 458q0 -58 -28.5 -86t-75.5 -28
l101 -193h-49l-95 193h-76v-193h-40v419h145q60 0 89 -26.5t29 -85.5zM413 460q0 45 -22.5 57.5t-64.5 12.5h-96v-146h101q36 0 59 16t23 60z" />
    <glyph glyph-name="copyright" unicode="&#xa9;" horiz-adv-x="602" 
d="M595 361q0 -156 -86.5 -265.5t-210.5 -109.5t-211 109t-87 266q0 156 87 265t211 109q123 0 210 -109t87 -265zM555 361q0 136 -75 235t-182 99t-182.5 -98.5t-75.5 -235.5q0 -138 75 -236.5t183 -98.5q107 0 182 98.5t75 236.5zM446 293q-6 -66 -44 -106t-91 -40
q-72 0 -118.5 62.5t-46.5 154.5q0 94 44.5 155t118.5 61q55 0 92 -37.5t45 -104.5h-40q-6 44 -33 73t-63 29q-57 0 -90.5 -51t-33.5 -124q0 -69 35 -123.5t90 -54.5q36 0 63 30t32 76h40z" />
    <glyph glyph-name="trademark" unicode="&#x2122;" horiz-adv-x="602" 
d="M573 452h-40v243l-99 -243h-26l-93 243l-2 -243h-40v283h68l81 -199l85 199h66v-283zM239 695h-94v-243h-40v243h-95v40h229v-40z" />
    <glyph glyph-name="acute" unicode="&#xb4;" horiz-adv-x="602" 
d="M398 693l-174 -118l-22 30l159 130z" />
    <glyph glyph-name="dieresis" unicode="&#xa8;" 
d="M212 779q18 0 31 -11t13 -29t-11 -31t-29 -13t-31 11t-13 29t11 31t29 13zM356 779q18 0 31 -11t13 -29t-11 -31t-29 -13t-31 11t-13 29t11 31t29 13z" />
    <glyph glyph-name="notequal" unicode="&#x2260;" 
d="M294 405h-260v44h277l114 299h46l-114 -299h210v-44h-227l-34 -90h261v-44h-278l-114 -298h-46l114 298h-209v44h226z" />
    <glyph glyph-name="AE" unicode="&#xc6;" 
d="M568 5h-312l-1 230l-116 -1l-66 -219h-52l230 710l310 1v-40h-258v-291h219v-40h-219v-310h265v-40zM260 275v352l-116 -353z" />
    <glyph glyph-name="Oslash" unicode="&#xd8;" 
d="M161 58q-21 30 -32.5 64t-19 90t-7.5 148q0 78 4 131t22.5 110t62 95.5t109.5 38.5q30 0 57.5 -9.5t48.5 -27.5l19 50h46l-33 -85q21 -28 35.5 -70t19.5 -99t5 -134q0 -78 -4 -131t-22.5 -109t-62.5 -95t-109 -39q-30 0 -56.5 9.5t-49.5 27.5l-19 -50h-46zM182 113
l207 541q-17 19 -39 30.5t-50 11.5q-54 0 -87.5 -40t-45 -88.5t-15 -102.5t-3.5 -105q0 -75 3 -118.5t11.5 -72.5t11 -37t7.5 -19zM418 608l-207 -541q17 -19 39 -30.5t50 -11.5q54 0 87.5 40t45 87.5t15 102t3.5 105.5q0 75 -3 119t-11 71t-11 36.5t-8 21.5z" />
    <glyph glyph-name="infinity" unicode="&#x221e;" 
d="M587 414q0 -108 -39.5 -164t-107.5 -56q-51 0 -84.5 30.5t-50.5 95.5q-16 -48 -58.5 -88t-80.5 -40q-61 0 -101 66.5t-40 155.5q0 92 37.5 155.5t100.5 63.5q38 0 82 -38.5t60 -86.5q15 62 50.5 94.5t84.5 32.5q69 0 108 -57t39 -164zM558 414q0 78 -31 125.5t-87 47.5
t-88 -47.5t-32 -125.5q0 -77 32.5 -125t87.5 -48q56 0 87 48t31 125zM291 413q0 67 -39 117.5t-89 50.5q-48 0 -77 -48.5t-29 -119.5q0 -73 29.5 -118.5t81.5 -45.5q49 0 86 49t37 115z" />
    <glyph glyph-name="plusminus" unicode="&#xb1;" 
d="M278 98v240h-244v44h244v245h44v-245h245v-44h-245v-240h235v-40h-486v40h207z" />
    <glyph glyph-name="lessequal" unicode="&#x2264;" 
d="M493 137l-26 -32l-379 330l379 276l26 -32l-341 -244zM536 17h-446l-5 49h451v-49z" />
    <glyph glyph-name="greaterequal" unicode="&#x2265;" 
d="M508 445l-400 -330v67l335 263l-335 234l-10 67zM548 44h-446v40h441z" />
    <glyph glyph-name="yen" unicode="&#xa5;" horiz-adv-x="602" 
d="M486 721l-181 -416v-31h121v-40h-121v-234h-47v234h-120v40h120v31l-181 416h56l149 -361l148 361h56z" />
    <glyph glyph-name="mu" unicode="&#xb5;" 
d="M558 244q2 -6 4 -16t2 -18q0 -22 -2 -38t-9 -43t-16 -40q-13 -15 -25 -30q-8 -17 -23.5 -27t-32.5 -10q-29 0 -48.5 27.5t-27.5 57.5t-12 57q-14 -61 -64.5 -113.5t-100.5 -52.5q-21 22 -37 39t-27 17q-8 0 -27.5 -35.5t-70.5 -77.5l-32 -12q0 15 3.5 26.5t16.5 29.5
t20.5 33.5t12.5 25.5q11 16 21.5 51t20.5 75l77 364h50l-78 -342q-6 -30 -6 -52q0 -42 19.5 -61.5t49.5 -19.5q48 0 85.5 61t71.5 200l53 214h54l-61 -252q-9 -39 -9 -80q0 -32 5 -57t14.5 -40.5t20.5 -15.5q18 0 36.5 22t33.5 44q-2 -4 -5.5 -10.5t-9.5 -16.5q12 29 24 59
q14 28 29 57z" />
    <glyph glyph-name="partialdiff" unicode="&#x2202;" 
d="M495 308q0 -57 -8 -111.5t-29.5 -101.5t-61 -76.5t-93.5 -29.5q-98 0 -151 71t-53 175q0 87 47 153t131 66q56 0 98 -29.5t73 -81.5q0 113 -59.5 233t-160.5 134q-46 9 -91 18q-18 0 -28 -7l7 50q14 9 28 9q8 0 26 -7t59.5 -11t114 -62.5t100.5 -121t39.5 -131
t11.5 -139.5zM442 214q0 41 -9.5 73t-32 61.5t-52 47.5t-62.5 18q-71 0 -105.5 -53t-34.5 -127q0 -83 38 -144t117 -61q68 0 104.5 57t36.5 128z" />
    <glyph glyph-name="summation" unicode="&#x3a3;" 
d="M110 660h420l-5 -40h-365l255 -255v-45l-265 -270h355v-40h-395v70l255 255l-5 20l-250 245v60z" />
    <glyph glyph-name="product" unicode="&#x220f;" 
d="M468 25v666h-327v-671h-42v671h-54v45h514v-45h-49v-666h-42z" />
    <glyph glyph-name="pi" unicode="&#x3c0;" 
d="M125 405h380v-40h-95v-340l30 -10l90 90l-45 -120h-115v375h-135v-355l-125 -85l85 95v345h-70v45z" />
    <glyph glyph-name="integral" unicode="&#x222b;" 
d="M338 620q0 53 33 62.5t48 9.5q12 0 21 -2.5t41.5 -18t46.5 -66.5l32 26q-17 75 -60.5 91.5t-56 19.5t-24.5 3q-16 0 -43.5 -7t-52 -26.5t-33 -39t-11 -21.5t-3.5 -2q0 -1 1.5 -12t1.5 -71v-140v-213t1 -257q0 -24 -18 -42t-39 -24t-36 -6q-12 0 -21 2.5t-41.5 18
t-46.5 66.5l-32 -26q17 -75 60.5 -91.5t56 -19.5t24.5 -3q16 0 42.5 7t45 20t37 39.5t22.5 49t4 70.5v578v25z" />
    <glyph glyph-name="ordfeminine" unicode="&#xaa;" 
d="M176 388h236v-28h-236v28zM382 450l-21 -3q-5 14 -7.5 24.5t-2.5 21.5q-16 -23 -32 -34.5t-41 -11.5q-34 0 -53.5 24.5t-19.5 60.5q0 40 21 67t58 27q16 0 30.5 -4.5t34.5 -13.5q0 53 -11 74.5t-43 21.5q-17 0 -26.5 -3t-37.5 -15l-5 22q16 6 34.5 11t35.5 5q36 0 56 -25
t20 -69l-3 -108q0 -16 3.5 -34t9.5 -38zM347 521v69q-15 8 -28.5 12t-28.5 4q-31 0 -46.5 -22t-15.5 -54q0 -25 13 -43.5t37 -18.5q23 0 38.5 13.5t30.5 39.5z" />
    <glyph glyph-name="ordmasculine" unicode="&#xba;" 
d="M180 396h188v28h-188v-28zM380 616q0 -74 -30.5 -106.5t-71.5 -32.5q-40 0 -70.5 33t-30.5 106q0 71 29.5 104.5t71.5 33.5q40 0 71 -32.5t31 -105.5zM356 616q0 49 -17 83.5t-61 34.5q-43 0 -60.5 -35.5t-17.5 -82.5q0 -50 17 -84t61 -34t61 34.5t17 83.5z" />
    <glyph glyph-name="Omega" unicode="&#x3a9;" 
d="M55 35h75q42 57 58.5 105.5t16.5 124.5q0 40 -24.5 112.5t-40.5 115t-16 60.5q0 64 54.5 110.5t121.5 46.5q62 0 120 -36.5t58 -102.5q0 -26 -10 -55q-31 -52 -62 -118.5t-31 -132.5q0 -54 21 -119t42 -86t32 -23t25 -2q15 0 27 1t21 3q0 -10 1 -20t1 -14q0 -13 -0.5 -16
t-1.5 -4h-102q-32 60 -64 134t-32 146q0 65 32 130t64 118q13 27 13 52q0 53 -48 84t-106 31t-105 -28t-47 -84q0 -22 9 -51q28 -53 55.5 -119t27.5 -128q0 -72 -27 -147.5t-56 -137.5h-102v50z" />
    <glyph glyph-name="ae" unicode="&#xe6;" 
d="M160 -2q-57 0 -88 48t-31 120q0 80 34 134t95 54q23 0 41 -10q23 -16 38 -25v60q0 58 -6.5 90.5t-55.5 32.5q-24 0 -47 -9t-56 -27l-9 44q56 27 75 33.5t40 6.5q44 0 63 -18t31 -70q19 46 34.5 69.5t74.5 23.5q68 0 115 -66t47 -218l-254 -4q0 -125 18.5 -157t52.5 -49
t50 -17q24 0 48.5 13t57.5 38l16 -44q-41 -23 -78 -35.5t-75 -12.5q-45 0 -66.5 25.5t-48.5 83.5q-2 -2 -39 -58t-77 -56zM505 311q0 82 -25 139t-84 57q-55 0 -71 -53t-16 -143h196zM247 145v137q-18 11 -35 22q-19 10 -41 10q-48 0 -68 -42.5t-20 -109.5q0 -48 19.5 -80
t57.5 -32q35 0 45 14t42 81z" />
    <glyph glyph-name="oslash" unicode="&#xf8;" 
d="M179 39q-35 34 -54.5 88.5t-19.5 137.5q0 142 59.5 209t142.5 67q20 0 37.5 -3.5t36.5 -11.5l19 47h46l-29 -67q43 -31 68.5 -89.5t25.5 -151.5q0 -146 -61.5 -211t-142.5 -65q-28 0 -49.5 5.5t-47.5 20.5l-15 -37h-41zM197 82l169 408q-27 11 -59 11q-87 0 -121 -69
t-34 -167q0 -53 10 -101.5t35 -81.5zM401 467l-175 -414q34 -24 81 -24q88 0 122 69t34 167q0 63 -13.5 116t-48.5 86z" />
    <glyph glyph-name="questiondown" unicode="&#xbf;" horiz-adv-x="602" 
d="M365 667q0 -27 -20 -47t-48 -20t-47.5 19.5t-19.5 47.5t19 48t48 20q28 0 48 -20t20 -48zM475 139q0 -70 -47.5 -111.5t-120.5 -41.5q-79 0 -124 46t-45 126q0 53 20 84.5t65 67t52.5 53t7.5 72.5v61h47v-98q0 -17 -1.5 -29.5t-7.5 -26t-28 -34t-50.5 -42.5t-43 -47
t-14.5 -64q0 -58 32.5 -93.5t90.5 -35.5q51 0 84 31t33 82h50z" />
    <glyph glyph-name="exclamdown" unicode="&#xa1;" horiz-adv-x="602" 
d="M365 667q0 -27 -20 -47t-48 -20t-47.5 19.5t-19.5 47.5t19 48t48 20q28 0 48 -20t20 -48zM335 0h-70l13 493h40z" />
    <glyph glyph-name="logicalnot" unicode="&#xac;" horiz-adv-x="2776" 
d="M2471 250q0 -143 -81 -209.5t-226 -66.5q-41 0 -91.5 13.5t-50.5 44.5q0 20 11 30t29 10t36 -10t27 -27q6 -15 22 -24.5t38 -14.5q113 0 171.5 60.5t58.5 183.5q3 29 3 62q0 147 -70.5 268.5t-229 141.5t-232 28.5t-135.5 8.5q-55 0 -134 -12.5t-181 -29t-262 -125.5
t-279 -253t-132 -257q21 -30 33.5 -65.5t12.5 -68.5q0 -23 -3.5 -37.5t-18.5 -14.5q-28 0 -44 48t-16 86v12q-61 50 -102.5 90.5t-45 69t-4.5 42.5t-1 32q0 19 3 34q-44 -38 -105 -83.5t-123.5 -80t-102.5 -34.5q-18 0 -32 11t-14 29q0 50 25 126.5t48 107.5l64 88
q10 12 14.5 18t6.5 12q-45 0 -67.5 20.5t-29.5 67.5q15 -3 30 -3q54 0 108.5 31t102.5 79q3 7 6 7q5 0 8.5 -13t3.5 -22q0 -78 -50 -117q-41 -27 -82 -53q-9 -17 -55.5 -81.5t-46.5 -113.5q0 -31 15 -77.5t36 -46.5q33 0 112.5 55t143.5 100q28 66 50 120t45 82t33.5 37.5
t28.5 9.5q11 0 19.5 -7.5t8.5 -19.5q0 -39 -32 -73.5t-77 -63.5q-7 -13 -20 -65.5t-13 -70.5q0 -23 31.5 -68.5t70.5 -96.5q26 124 141 262t260 238t268.5 125.5t215 38.5t194.5 13q76 0 156.5 -7t197 -26t208.5 -134.5t92 -370.5zM2191 566q0 -61 -58.5 -197.5t-103 -214.5
t-78.5 -120t-80 -42q-39 0 -78.5 25.5t-39.5 63.5q0 30 15.5 51t36.5 41q30 -37 47 -52t47 -15q81 0 142 130t61 222q0 54 -29.5 70.5t-84.5 16.5q-87 0 -95 -55t-19 -61l-13 34q1 7 1 13.5v9.5q0 7 -1 24.5t-1 27.5q0 49 24.5 77t97.5 28q87 0 148 -13t61 -64zM1663 285
q0 -59 -39 -113t-137 -128.5t-273 -74.5q-91 0 -160 35.5t-69 117.5q0 51 36.5 91.5t89.5 54.5l3 -9q-39 -15 -61.5 -34.5t-25.5 -57.5q0 -77 81 -104.5t182 -27.5q146 0 216.5 53t86.5 76t16 50q0 42 -33.5 53.5t-83.5 11.5q-29 0 -81 -4.5t-57 -4.5q-74 0 -126 33t-52 105
q0 103 91.5 162t201.5 59q38 0 57 -4t36 -24q8 4 15 4q14 0 25 -24.5t21 -33.5q5 -1 5 -8q-4 -12 -29.5 -40t-28.5 -33q-3 -11 -10 -11t-20.5 12.5t-22.5 14.5t-18.5 5.5t-9.5 13.5q0 13 18 36t18 39q0 20 -18.5 28t-42.5 8q-81 0 -155.5 -41.5t-74.5 -117.5q0 -43 35.5 -58
t84.5 -15q27 0 69.5 2.5t48.5 2.5q86 0 138.5 -17t52.5 -83zM1685 21q-8 -26 -46 -26q-11 0 -30 5t-32.5 20.5t-8.5 33.5q7 25 43 25q13 0 32 -5.5t33 -20t9 -32.5zM982 15q-8 -27 -49 -27q-12 0 -30.5 4.5t-33 21.5t-9.5 36q8 26 48 26q12 0 31 -5t33.5 -21.5t9.5 -34.5z
" />
    <glyph glyph-name="radical" unicode="&#x221a;" 
d="M20 355l65 70l155 -310l290 675l40 5l-330 -780l-155 330l-65 -40v50z" />
    <glyph glyph-name="florin" unicode="&#x192;" 
d="M259 305h-109v40h109l-1 209q0 95 38.5 138t99.5 43q26 0 66.5 -24.5t49.5 -28.5v-50q-22 9 -54.5 36t-56.5 27q-49 0 -67.5 -28t-18.5 -85v-237h100v-40h-100v-305q-10 -51 -32 -85.5t-38 -54.5t-46.5 -31.5t-47.5 -11.5q-20 0 -60.5 17.5t-60.5 70.5l10 23
q16 -36 46.5 -51.5t57.5 -15.5q18 0 41.5 9.5t34 23.5t21.5 38t14.5 34t3.5 34v305z" />
    <glyph glyph-name="approxequal" unicode="&#x2248;" 
d="M544 508q0 -14 -5 -25.5t-21 -32.5t-41.5 -29.5t-66.5 -8.5q-11 0 -70.5 9t-69 11l-28.5 6t-28 7l-35 12l-30 12q-6 1 -14.5 -3t-9.5 -4q-18 0 -28 -7t-16 -12.5t-11.5 -13t-11.5 -17.5h-39q16 52 54.5 76.5t83.5 24.5q17 0 40.5 -5t32 -8.5t14.5 -5.5l31 -11
q8 -3 47.5 -9.5t82.5 -12.5l28 -3q32 0 49 15t25 35h37zM569 323q0 -14 -5 -25.5t-21.5 -33t-44 -32t-68.5 -10.5q-14 0 -67.5 10t-68 13.5t-32 12t-28.5 7.5l-30 -3q-4 -1 -13 3.5l-17 8.5l-19 3q-19 0 -31 -6.5t-18 -12.5t-11.5 -13.5t-11.5 -17.5h-39q16 52 54.5 76.5
t83.5 24.5q17 0 40.5 -5t32 -8.5t14.5 -5.5l31 -11q8 -3 47.5 -9.5t82.5 -12.5l28 -3q32 0 49 15t25 35h37z" />
    <glyph glyph-name="Delta" unicode="&#x2206;" 
d="M580 10h-560l290 650zM529 41l-217 530l-249 -530h466z" />
    <glyph glyph-name="guillemotleft" unicode="&#xab;" horiz-adv-x="602" 
d="M569 137l-29 -32l-260 251l260 250l29 -30l-230 -220zM321 137l-29 -32l-259 251l259 250l29 -30l-229 -220z" />
    <glyph glyph-name="guillemotright" unicode="&#xbb;" horiz-adv-x="602" 
d="M569 356l-260 -251l-29 32l230 219l-230 220l29 30zM320 356l-259 -251l-29 32l229 219l-229 220l29 30z" />
    <glyph glyph-name="ellipsis" unicode="&#x2026;" horiz-adv-x="602" 
d="M562 48q0 -26 -19 -44t-45 -18t-44 18t-18 44q0 25 18 44t44 19q27 0 45.5 -18.5t18.5 -44.5zM362 48q0 -26 -18 -44t-45 -18q-26 0 -44 18t-18 44q0 25 18 44t44 19t44.5 -18.5t18.5 -44.5zM163 48q0 -26 -18 -44t-45 -18q-26 0 -44 18t-18 44q0 25 18 44t44 19
t44.5 -18.5t18.5 -44.5z" />
    <glyph glyph-name="nonbreakingspace" unicode="&#xa0;" horiz-adv-x="500" 
 />
    <glyph glyph-name="Agrave" unicode="&#xc0;" 
d="M321 795l-22 -30l-174 118l37 42zM548 -5h-54l-65 219h-245l-66 -219h-52l240 750l164 -512zM419 254l-113 363l-112 -363h225z" />
    <glyph glyph-name="Atilde" unicode="&#xc3;" 
d="M543 0h-54l-65 219h-245l-66 -219h-52l240 750l164 -512zM414 259l-113 363l-112 -363h225zM351 838l27 -12l21 -3q24 0 37 14.5t20 35.5h29q0 -13 -4.5 -25.5t-16.5 -33t-25 -26.5t-46 -6q-18 -1 -27 -1q-8 0 -15.5 2t-22 11t-23.5 11l-23 7l-24 7l-24 3q-8 0 -13.5 -4
t-16 -16.5t-20.5 -34.5h-30q12 52 41.5 76.5t64.5 24.5q14 0 31 -4.5t19.5 -5.5t16.5 -9z" />
    <glyph glyph-name="Otilde" unicode="&#xd5;" 
d="M512 360q0 -212 -56.5 -293t-155.5 -81t-156.5 80t-57.5 294q0 104 14.5 183.5t62 135.5t137.5 56q139 0 175.5 -109.5t36.5 -265.5zM461 360q0 187 -42 261t-119 74q-82 0 -123 -77.5t-41 -257.5q0 -187 43.5 -260.5t120.5 -73.5q78 0 119.5 75t41.5 259zM331 823
l27 -12l21 -3q24 0 37 14.5t20 35.5h29q0 -13 -4.5 -25.5t-16.5 -33t-25 -26.5t-46 -6q-18 -1 -27 -1q-8 0 -15.5 2t-22 11t-23.5 11l-23 7l-24 7l-24 3q-8 0 -13.5 -4t-16 -16.5t-20.5 -34.5h-30q12 52 41.5 76.5t64.5 24.5q14 0 31 -4.5t19.5 -5.5t16.5 -9z" />
    <glyph glyph-name="OE" unicode="&#x152;" 
d="M346 661v78h216v-40h-179v-206q1 -13 1.5 -39t1.5 -46h134v-40h-134v-26q0 -36 -3 -69v-215h185v-40h-222v72q-23 -50 -55.5 -70.5t-75.5 -20.5q-80 0 -126.5 80.5t-46.5 293.5q0 108 11 185t50 133.5t112 56.5q46 0 78.5 -23t52.5 -64zM346 373q0 188 -34 261.5
t-97 73.5q-66 0 -99.5 -77t-33.5 -258q0 -188 35.5 -261t97.5 -73q64 0 97.5 74.5t33.5 259.5z" />
    <glyph glyph-name="oe" unicode="&#x153;" 
d="M345 292l-2 -52q14 -102 47 -143t91 -41q38 0 63.5 32t39.5 40v-56l-45 -45t-72 -15q-62 0 -88 30t-58 102q-27 -71 -62.5 -100.5t-85.5 -29.5q-75 0 -122.5 63t-47.5 213q0 146 40.5 207t117.5 61h20t20 1q40 0 65.5 -14.5t47.5 -64.5q21 52 33.5 70t90.5 18
q74 0 112.5 -60t38.5 -216h-244zM343 332h198q0 94 -17.5 143t-87.5 49q-60 0 -72.5 -32.5t-23.5 -126.5zM295 239q-4 25 -4 58l3 51q-9 85 -29 119.5t-92 34.5q-86 0 -104.5 -51.5t-18.5 -160.5q0 -114 19 -171t104 -57q72 0 92.5 42.5t29.5 134.5z" />
    <glyph glyph-name="endash" unicode="&#x2013;" horiz-adv-x="602" 
d="M476 339h-352v40h352v-40z" />
    <glyph glyph-name="emdash" unicode="&#x2014;" horiz-adv-x="602" 
d="M601 339h-512h-89v40h512h89v-40z" />
    <glyph glyph-name="quotedblleft" unicode="&#x201c;" horiz-adv-x="602" 
d="M490 575q0 -29 -19 -47t-47 -18q-31 0 -50.5 24.5t-19.5 57.5q0 51 40 89.5t94 53.5v-42q-27 -8 -48 -22.5t-30 -36.5l19 3q27 0 44 -17t17 -45zM267 575q0 -29 -19 -47t-47 -18q-31 0 -50.5 24.5t-19.5 57.5q0 51 40 89.5t94 53.5v-42q-27 -8 -48 -22.5t-30 -36.5l19 3
q27 0 44 -17t17 -45z" />
    <glyph glyph-name="quotedblright" unicode="&#x201d;" horiz-adv-x="602" 
d="M490 653q0 -51 -40 -89.5t-94 -53.5v42q27 8 48 22.5t30 36.5l-19 -3q-27 0 -44 17t-17 45q0 29 19 47t47 18q31 0 50.5 -24.5t19.5 -57.5zM267 653q0 -51 -40 -89.5t-94 -53.5v42q27 8 48 22.5t30 36.5l-19 -3q-27 0 -44 17t-17 45q0 29 19 47t47 18q31 0 50.5 -24.5
t19.5 -57.5z" />
    <glyph glyph-name="quoteleft" unicode="&#x2018;" horiz-adv-x="602" 
d="M379 575q0 -29 -19 -47t-47 -18q-31 0 -50.5 24.5t-19.5 57.5q0 51 40 89.5t94 53.5v-42q-27 -8 -48 -22.5t-30 -36.5l19 3q27 0 44 -17t17 -45z" />
    <glyph glyph-name="quoteright" unicode="&#x2019;" horiz-adv-x="602" 
d="M379 653q0 -51 -40 -89.5t-94 -53.5v42q27 8 48 22.5t30 36.5l-19 -3q-27 0 -44 17t-17 45q0 29 19 47t47 18q31 0 50.5 -24.5t19.5 -57.5z" />
    <glyph glyph-name="divide" unicode="&#xf7;" horiz-adv-x="3034" 
d="M1316 742q-49 0 -61 -13t-12 -64v-82h67v-58h-67v-525h-67v525h-67v58h67v92q0 83 34.5 103.5t105.5 20.5v-57zM2065 0h-83l-207 392l-86 -109v-283h-73v793h73v-395l277 395h92l-235 -335zM590 223q0 -112 -69 -177t-161 -65t-157 65t-65 186h67q12 -92 51 -138t108 -46
q58 0 105 42.5t47 121.5v15q-2 10 -5 43.5t-126.5 88.5t-174 90t-50.5 148q0 20 6 69.5t63 91.5t132 42q85 0 147.5 -51t62.5 -141h-73q0 60 -48 100.5t-107 40.5q-49 0 -81 -32t-32 -99q-1 -9 -1 -25q0 -88 93 -137q87 -39 174 -77q94 -55 94 -156zM1533 0
q-12 -5 -23.5 -8.5t-27.5 -3.5q-39 0 -65.5 30t-26.5 106v401h-58v58h58v175h66v-175h77v-58h-77v-417q0 -63 38 -63q16 0 39 12v-57zM1046 366q0 -169 -32 -278.5t-163 -109.5q-104 0 -139.5 91.5t-35.5 280.5q0 77 34.5 158t140.5 91q93 0 144 -63t51 -170zM2453 181
q0 -104 -47.5 -153.5t-117.5 -49.5q-113 0 -144.5 91.5t-31.5 204.5q0 174 44.5 246t131.5 72q83 0 126 -68t43 -176v-40q-3 -17 -4 -25h-274q2 -84 18.5 -167.5t90.5 -83.5q51 0 77 42t26 92q0 10 -1 15h63zM2896 583l-185 -672q-11 -53 -49 -82.5t-96 -29.5q-16 0 -36 3
v58q15 -3 29 -3q45 0 74.5 39.5t29.5 96.5l-152 590h66l128 -475l124 475h67zM2390 341q0 109 -28.5 150t-73.5 41q-54 0 -81.5 -43.5t-27.5 -147.5h211zM985 290q0 121 -26.5 186t-107.5 65q-63 0 -88.5 -69.5t-25.5 -130.5q0 -134 17 -221.5t97 -87.5q74 0 104 77.5
t30 180.5z" />
    <glyph glyph-name="lozenge" unicode="&#x25ca;" 
d="M555 380l-255 -370l-225 375l230 355zM516 379l-205 306l-198 -298l190 -320z" />
    <glyph glyph-name="ydieresis" unicode="&#xff;" 
d="M242 654q18 0 31 -11t13 -29t-11 -31t-29 -13t-31 11t-13 29t11 31t29 13zM386 654q18 0 31 -11t13 -29t-11 -31t-29 -13t-31 11t-13 29t11 31t29 13zM513 530l-199 -504q-34 -88 -69.5 -141.5t-96.5 -53.5q-43 0 -75 28.5t-47 72.5l40 21q12 -34 32 -58t50 -24
q34 0 54 26t41 73l40 91l-172 469h52l143 -407l152 407h55z" />
    <glyph glyph-name="Ydieresis" unicode="&#x178;" 
d="M217 859q18 0 31 -11t13 -29t-11 -31t-29 -13t-31 11t-13 29t11 31t29 13zM361 859q18 0 31 -11t13 -29t-11 -31t-29 -13t-31 11t-13 29t11 31t29 13zM486 721l-181 -416v-305h-47v305l-181 416h53l151 -361l152 361h53z" />
    <glyph glyph-name="fraction" unicode="&#x2215;" horiz-adv-x="615" 
d="M555 764l-348 -763h-34l348 763h34z" />
    <glyph glyph-name="currency" unicode="&#xa4;" horiz-adv-x="602" 
d="M590 107l-33 -32l-109 107q-64 -52 -148 -52t-148 52l-108 -107l-33 32l109 107q-50 68 -50 146q0 77 50 147l-109 107l33 32l108 -107q64 52 148 52t148 -52l109 107l33 -32l-110 -107q51 -69 51 -147t-51 -146zM491 360q0 81 -55 137t-136 56t-136 -56t-55 -137
t55 -136t136 -55t136 55t55 136z" />
    <glyph glyph-name="guilsinglleft" unicode="&#x2039;" horiz-adv-x="602" 
d="M422 137l-29 -32l-259 251l259 250l29 -30l-229 -220z" />
    <glyph glyph-name="guilsinglright" unicode="&#x203a;" horiz-adv-x="602" 
d="M466 356l-259 -251l-29 32l229 219l-229 220l29 30z" />
    <glyph glyph-name="fi" unicode="&#xf001;" 
d="M245 463v-453h-47v453h-136v40h136v61q0 94 44.5 137.5t108.5 43.5q30 0 62.5 -9t68.5 -24v-50q-33 15 -65.5 29t-60.5 14q-102 0 -111 -108v-94h70l201 2v-495h-47v454z" />
    <glyph glyph-name="fl" unicode="&#xf002;" 
d="M432 458h-187v-453h-47v453h-136v40h136v61q0 94 44.5 137.5t108.5 43.5q30 0 62.5 -9t68.5 -24v-50l-3 1v-653h-47v453zM432 498v182q-20 9 -39 14.5t-37 5.5q-102 0 -111 -108v-94h187z" />
    <glyph glyph-name="daggerdbl" unicode="&#x2021;" horiz-adv-x="602" 
d="M458 181l-132 7l8 -188h-65l8 188l-132 -7v54l133 -8v265l-133 -7v55l132 -8l-8 189h65l-8 -189l132 8v-55l-133 7v-265l133 8v-54z" />
    <glyph glyph-name="periodcentered" unicode="&#x2219;" 
d="M368 416q0 -27 -20 -47t-48 -20t-47.5 19.5t-19.5 47.5t19 48t48 20q28 0 48 -20t20 -48z" />
    <glyph glyph-name="quotesinglbase" unicode="&#x201a;" 
d="M379 32q0 -51 -40 -89.5t-94 -53.5v42q27 8 48 22.5t30 36.5l-19 -3q-27 0 -44 17t-17 45q0 29 19 47t47 18q31 0 50.5 -24.5t19.5 -57.5z" />
    <glyph glyph-name="quotedblbase" unicode="&#x201e;" 
d="M284 37q0 -51 -40 -89.5t-94 -53.5v42q27 8 48 22.5t30 36.5l-19 -3q-27 0 -44 17t-17 45q0 29 19 47t47 18q31 0 50.5 -24.5t19.5 -57.5zM454 32q0 -51 -40 -89.5t-94 -53.5v42q27 8 48 22.5t30 36.5l-19 -3q-27 0 -44 17t-17 45q0 29 19 47t47 18q31 0 50.5 -24.5
t19.5 -57.5z" />
    <glyph glyph-name="perthousand" unicode="&#x2030;" 
d="M223 637q0 -81 -35 -132.5t-81 -51.5q-40 0 -59.5 28.5t-19.5 78.5q0 70 33 125.5t88 55.5q39 0 56.5 -27t17.5 -77zM369 741l-299 -735h-33l297 735h35zM357 178q0 -80 -36 -131.5t-82 -51.5q-40 0 -58.5 28t-18.5 78q0 71 30.5 126t85.5 55q40 0 59.5 -27.5t19.5 -76.5
zM574 173q0 -81 -35.5 -132t-81.5 -51q-40 0 -59.5 28.5t-19.5 77.5q0 70 31 125.5t86 55.5q40 0 59.5 -27.5t19.5 -76.5zM320 186q0 29 -10 47.5t-31 18.5q-40 0 -60.5 -51.5t-20.5 -107.5q0 -33 9 -50.5t34 -17.5q38 0 58.5 53t20.5 108zM188 645q0 30 -10 48t-33 18
q-39 0 -60 -52.5t-21 -106.5q0 -31 10 -50t35 -19q38 0 58.5 54t20.5 108zM538 181q0 30 -10 48t-33 18q-39 0 -60 -52.5t-21 -106.5q0 -33 9 -50.5t35 -17.5q38 0 59 54t21 107z" />
    <glyph glyph-name="Acircumflex" unicode="&#xc2;" 
d="M397 784h-29l-53 97h-23l-41 -97h-28l59 131h41zM543 0h-54l-65 219h-245l-66 -219h-52l240 750l164 -512zM414 259l-113 363l-112 -363h225z" />
    <glyph glyph-name="Ecircumflex" unicode="&#xca;" 
d="M401 773h-29l-53 97h-23l-41 -97h-28l59 131h41zM511 0h-360v721h353v-40h-306v-291h219v-40h-219v-310h313v-40z" />
    <glyph glyph-name="Aacute" unicode="&#xc1;" 
d="M543 0h-54l-65 219h-245l-66 -219h-52l240 750l164 -512zM414 259l-113 363l-112 -363h225zM494 904l-174 -118l-22 30l159 130z" />
    <glyph glyph-name="Edieresis" unicode="&#xcb;" 
d="M511 0h-360v721h353v-40h-306v-291h219v-40h-219v-310h313v-40zM254 857q18 0 31 -11t13 -29t-11 -31t-29 -13t-31 11t-13 29t11 31t29 13zM398 857q18 0 31 -11t13 -29t-11 -31t-29 -13t-31 11t-13 29t11 31t29 13z" />
    <glyph glyph-name="Egrave" unicode="&#xc8;" 
d="M511 0h-360v721h353v-40h-306v-291h219v-40h-219v-310h313v-40zM372 773l-22 -30l-174 118l37 42z" />
    <glyph glyph-name="Iacute" unicode="&#xcd;" 
d="M423 0h-247v40h100v641h-100v40h247v-40h-100v-641h100v-40zM470 869l-174 -118l-22 30l159 130z" />
    <glyph glyph-name="Icircumflex" unicode="&#xce;" 
d="M423 0h-247v40h100v641h-100v40h247v-40h-100v-641h100v-40zM393 771h-29l-53 97h-23l-41 -97h-28l59 131h41z" />
    <glyph glyph-name="Idieresis" unicode="&#xcf;" 
d="M423 0h-247v40h100v641h-100v40h247v-40h-100v-641h100v-40zM224 880q18 0 32 -14t14 -35q0 -22 -12.5 -38.5t-29.5 -16.5q-18 0 -31.5 14.5t-13.5 35.5q0 22 11.5 38t29.5 16zM375 880q18 0 32 -14t14 -35q0 -22 -12.5 -38.5t-29.5 -16.5q-19 0 -32.5 14.5t-13.5 35.5
t12.5 37.5t29.5 16.5z" />
    <glyph glyph-name="Igrave" unicode="&#xcc;" 
d="M423 0h-247v40h100v641h-100v40h247v-40h-100v-641h100v-40zM328 777l-22 -30l-174 118l37 42z" />
    <glyph glyph-name="Oacute" unicode="&#xd3;" 
d="M512 360q0 -212 -56.5 -293t-155.5 -81t-156.5 80t-57.5 294q0 104 14.5 183.5t62 135.5t137.5 56q139 0 175.5 -109.5t36.5 -265.5zM461 360q0 187 -42 261t-119 74q-82 0 -123 -77.5t-41 -257.5q0 -187 43.5 -260.5t120.5 -73.5q78 0 119.5 75t41.5 259zM505 890
l-174 -118l-22 30l159 130z" />
    <glyph glyph-name="Ocircumflex" unicode="&#xd4;" 
d="M512 360q0 -212 -56.5 -293t-155.5 -81t-156.5 80t-57.5 294q0 104 14.5 183.5t62 135.5t137.5 56q139 0 175.5 -109.5t36.5 -265.5zM461 360q0 187 -42 261t-119 74q-82 0 -123 -77.5t-41 -257.5q0 -187 43.5 -260.5t120.5 -73.5q78 0 119.5 75t41.5 259zM396 779h-29
l-53 97h-23l-41 -97h-28l59 131h41z" />
    <glyph glyph-name="apple" unicode="&#xf000;" horiz-adv-x="790" 
d="M408 594l-1 7v11q0 61 46 112t116 64v-12l1 -18q0 -64 -50.5 -114.5t-99.5 -50.5h-4zM735 197q-56 -121 -101 -167.5t-99 -46.5q-25 0 -64 16t-60 16q-23 0 -64 -16t-62 -16q-30 0 -63 21q-13 10 -30.5 27.5t-48.5 60t-59.5 120.5t-28.5 148q0 107 61.5 174.5t157.5 67.5
q16 0 35.5 -4t51.5 -17t49 -13q18 0 61 17t73 17q55 0 97.5 -19.5t77.5 -60.5q-49 -31 -73.5 -70.5t-24.5 -89.5q0 -54 30 -98t84 -67z" />
    <glyph glyph-name="Ograve" unicode="&#xd2;" 
d="M512 360q0 -212 -56.5 -293t-155.5 -81t-156.5 80t-57.5 294q0 104 14.5 183.5t62 135.5t137.5 56q139 0 175.5 -109.5t36.5 -265.5zM461 360q0 187 -42 261t-119 74q-82 0 -123 -77.5t-41 -257.5q0 -187 43.5 -260.5t120.5 -73.5q78 0 119.5 75t41.5 259zM302 801
l-22 -30l-174 118l37 42z" />
    <glyph glyph-name="Uacute" unicode="&#xda;" 
d="M488 185q0 -98 -58.5 -148.5t-129.5 -50.5q-76 0 -133 55t-57 133v547h47v-512q0 -97 39 -140t104 -43t103 41t38 126v528h47v-536zM486 861l-174 -118l-22 30l159 130z" />
    <glyph glyph-name="Ucircumflex" unicode="&#xdb;" 
d="M488 185q0 -98 -58.5 -148.5t-129.5 -50.5q-76 0 -133 55t-57 133v547h47v-512q0 -97 39 -140t104 -43t103 41t38 126v528h47v-536zM389 772h-29l-53 97h-23l-41 -97h-28l59 131h41z" />
    <glyph glyph-name="Ugrave" unicode="&#xd9;" 
d="M488 185q0 -98 -58.5 -148.5t-129.5 -50.5q-76 0 -133 55t-57 133v547h47v-512q0 -97 39 -140t104 -43t103 41t38 126v528h47v-536zM304 781l-22 -30l-174 118l37 42z" />
    <glyph glyph-name="dotlessi" unicode="&#x131;" 
d="M336 0h-47v489h-154v41h201v-530z" />
    <glyph glyph-name="circumflex" unicode="&#x302;" 
d="M372 645h-29l-53 97h-23l-41 -97h-28l59 131h41z" />
    <glyph glyph-name="tilde" unicode="&#x303;" 
d="M316 588l27 -12l21 -3q24 0 37 14.5t20 35.5h29q0 -13 -4.5 -25.5t-16.5 -33t-25 -26.5t-46 -6q-18 -1 -27 -1q-8 0 -15.5 2t-22 11t-23.5 11l-23 7l-24 7l-24 3q-8 0 -13.5 -4t-16 -16.5t-20.5 -34.5h-30q12 52 41.5 76.5t64.5 24.5q14 0 31 -4.5t19.5 -5.5t16.5 -9z
" />
    <glyph glyph-name="macron" unicode="&#x2c9;" 
d="M116 507h352v-52h-352v52z" />
    <glyph glyph-name="breve" unicode="&#x2d8;" 
d="M167 649q4 -37 27 -59t42 -26t56 -4q48 0 81.5 28.5t45.5 64.5h36q-9 -49 -40.5 -80t-59.5 -41.5t-68 -10.5q-37 0 -59.5 6.5t-57.5 35t-43 86.5h40z" />
    <glyph glyph-name="dotaccent" unicode="&#x2d9;" 
d="M355 678q0 -27 -20 -47t-48 -20t-47.5 19.5t-19.5 47.5t19 48t48 20q28 0 48 -20t20 -48z" />
    <glyph glyph-name="ring" unicode="&#x2da;" 
d="M361 666q0 -27 -17.5 -45.5t-43.5 -18.5t-45 17t-19 43q0 27 17.5 45.5t43.5 18.5t45 -17t19 -43zM339 666q0 16 -12 27t-30 11q-16 0 -27 -12t-11 -30q0 -16 12.5 -28.5t28.5 -12.5t27.5 13.5t11.5 31.5z" />
    <glyph glyph-name="cedilla" unicode="&#xb8;" 
d="M335 -2l-16 -36q17 3 31 3q37 0 59.5 -18.5t22.5 -50.5q0 -38 -32 -61.5t-94 -23.5q-21 0 -41 3.5t-41 12.5l13 32l16 -5l46 -7q58 0 58 42q0 38 -43 38q-15 0 -24 -1.5l-15 -2.5l-6 5l29 71z" />
    <glyph glyph-name="hungarumlaut" unicode="&#x2ba;" 
d="M215 731q8 14 19 21.5t25 6.5q17 0 25.5 -10t10.5 -22t-4 -27.5t-16 -24.5l-120 -104h-36zM359 727q8 14 19 21.5t25 6.5q17 0 25.5 -10t10.5 -22t-4 -27.5t-16 -24.5l-120 -104h-36z" />
    <glyph glyph-name="ogonek" unicode="&#x2db;" 
d="M300 53q-19 -15 -27 -29t-14.5 -33.5t-11 -34.5t-4.5 -28t7 -31t20.5 -30t37.5 -21.5t41 -9.5q13 0 26 4t24 12.5t23 17.5l30 21l8 -50q-10 -6 -19.5 -12.5t-20.5 -11.5t-21 -8t-30 -8t-34 -5q-17 0 -31 6q-19 11 -39.5 22t-35 25t-23.5 39.5t-9 42.5q0 22 14 58.5
t57 63.5h32z" />
    <glyph glyph-name="caron" unicode="&#x2c7;" 
d="M241 741l41 -97h23l53 97h29l-74 -131h-41l-59 131h28z" />
    <glyph glyph-name="Lslash" unicode="&#x141;" 
d="M169 333l-73 -41l-16 44l89 51v334h47v-308l96 55l16 -44l-112 -64v-320h317v-40h-364v333z" />
    <glyph glyph-name="lslash" unicode="&#x142;" 
d="M323 332v-292h100v-40h-247v40h100v260l-112 -76v48l112 79v330h-100v40h247v-40h-100v-296l117 83v-56z" />
    <glyph glyph-name="Scaron" unicode="&#x160;" 
d="M507 186q0 -92 -56 -146t-149 -54q-62 0 -112.5 27t-90.5 79l36 29q29 -42 73 -68.5t94 -26.5q64 0 109 42t45 106q0 54 -23 85t-118 88l-67 40q-63 38 -96.5 77.5t-33.5 99.5q0 79 52.5 125t133.5 46q50 0 96 -21.5t87 -59.5l-28 -35q-43 37 -78.5 56.5t-79.5 19.5
q-57 0 -95 -35t-38 -91q0 -43 24 -76t89 -72l59 -36q93 -54 130 -95.5t37 -103.5zM262 896l33 -78h18l42 78h24l-60 -105h-32l-48 105h23z" />
    <glyph glyph-name="scaron" unicode="&#x161;" 
d="M465 129q0 -63 -47.5 -101.5t-111.5 -38.5q-47 0 -104 25t-95 60l26 38q36 -36 82.5 -59.5t92.5 -23.5q47 0 78.5 25t31.5 72q0 52 -31 77t-100 51.5t-110.5 58.5t-41.5 95q0 55 47 94t108 39q43 0 82 -14.5t77 -42.5l-20 -39q-36 26 -70.5 41t-71.5 15q-41 0 -73 -28
t-32 -69t32 -65t99 -49.5t109.5 -59t42.5 -101.5zM251 707l33 -78h18l42 78h24l-60 -105h-32l-48 105h23z" />
    <glyph glyph-name="Zcaron" unicode="&#x17d;" 
d="M504 0h-391v40l313 641h-302v40h355v-40l-310 -641h335v-40zM254 914l41 -97h23l53 97h29l-74 -131h-41l-59 131h28z" />
    <glyph glyph-name="zcaron" unicode="&#x17f;" 
d="M498 0h-396v40l328 449h-283v41h339v-41l-325 -449h337v-40zM266 722l41 -97h23l53 97h29l-74 -131h-41l-59 131h28z" />
    <glyph glyph-name="brokenbar" unicode="&#xa6;" 
d="M278 268h48v-232h-48v232zM278 612h48v-232h-48v232z" />
    <glyph glyph-name="Eth" unicode="&#xd0;" 
d="M123 348h-95v44h95v329h180q60 0 103 -28t65.5 -69.5t35.5 -106.5t13 -157q0 -119 -19 -184.5t-43 -100t-64.5 -55t-104.5 -20.5h-166v348zM170 392h110v-44h-110v-308h89q70 0 113 18t64 66.5t27 109t6 126.5q0 81 -5.5 137t-29.5 103.5t-65.5 64t-109.5 16.5h-89v-289z
" />
    <glyph glyph-name="eth" unicode="&#xf0;" 
d="M392 568l-68 -52l-28 28l73 57q-9 12 -20.5 25.5t-33 34t-61 44.5t-62.5 24q-9 0 -14 -4l25 52q29 7 74 -24t67.5 -52.5t41 -37.5t27.5 -27l63 48l32 -28l-72 -55l14 -28q21 -39 33 -99t12 -166q0 -57 -8 -111.5t-29.5 -101.5t-61 -76.5t-93.5 -29.5q-98 0 -151 71
t-53 175q0 87 47 153t131 66q56 0 98 -29.5t73 -81.5q0 66 -12.5 120.5t-43.5 104.5zM442 214q0 41 -9.5 73t-32 61.5t-52 47.5t-62.5 18q-71 0 -105.5 -53t-34.5 -127q0 -83 38 -144t117 -61q68 0 104.5 57t36.5 128z" />
    <glyph glyph-name="Yacute" unicode="&#xdd;" 
d="M478 841l-174 -118l-22 30l159 130zM486 721l-181 -416v-305h-47v305l-181 416h53l151 -361l152 361h53z" />
    <glyph glyph-name="yacute" unicode="&#xfd;" 
d="M498 661l-174 -118l-22 30l159 130zM513 530l-199 -504q-34 -88 -69.5 -141.5t-96.5 -53.5q-43 0 -75 28.5t-47 72.5l40 21q12 -34 32 -58t50 -24q34 0 54 26t41 73l40 91l-172 469h52l143 -407l152 407h55z" />
    <glyph glyph-name="Thorn" unicode="&#xde;" 
d="M223 44h100v-40h-247v40h100v641h-100v40h247v-40h-100v-83h93q83 0 121 -49t38 -123q0 -84 -47 -127t-131 -43h-73zM435 429q0 75 -33 108t-83 33h-95v-278h67q74 0 109 36t35 101z" />
    <glyph glyph-name="thorn" unicode="&#xfe;" 
d="M262 78v-160h133v-40h-317v40h137v643l-144 -45v44l191 61v-196h97q83 0 121 -49t38 -123q0 -84 -47.5 -127.5t-130.5 -43.5h-73v-4h-5zM477 252q0 75 -33 108t-83 33h-94v-279h67q73 0 108 36.5t35 101.5z" />
    <glyph glyph-name="minus" unicode="&#x2212;" 
d="M96 316h396v-49h-396v49z" />
    <glyph glyph-name="multiply" unicode="&#xd7;" 
d="M517 22h-52l-356 472h48zM545 490l-420 -476l-44 4l416 472h48z" />
    <glyph glyph-name="onesuperior" unicode="&#xb9;" 
d="M361 407h-159v20h69v322l-72 -23v22l95 31v-352h67v-20z" />
    <glyph glyph-name="twosuperior" unicode="&#xb2;" 
d="M374 407h-192q0 62 15 92.5t68 76.5t68.5 68.5t15.5 47.5q0 63 -62 63q-34 0 -53.5 -21.5t-19.5 -55.5h-23q0 42 26.5 69.5t69.5 27.5q39 0 62 -22t23 -62q0 -35 -19.5 -59.5t-66.5 -66.5t-63.5 -71t-16.5 -67h168v-20z" />
    <glyph glyph-name="threesuperior" unicode="&#xb3;" 
d="M369 519q0 -46 -30 -76t-77 -30q-34 0 -58.5 16t-44.5 47l21 12q13 -26 32.5 -40t48.5 -14q37 0 60.5 21.5t23.5 58.5q0 44 -27 67t-70 23v20q33 0 56.5 21.5t23.5 54.5q0 28 -20.5 47.5t-48.5 19.5q-24 0 -43.5 -13.5t-31.5 -36.5l-20 11q15 28 40.5 43.5t56.5 15.5
q39 0 65 -26t26 -64q0 -28 -16 -49t-42 -32q36 -12 55.5 -36.5t19.5 -60.5z" />
    <glyph glyph-name="onehalf" unicode="&#xbd;" horiz-adv-x="605" 
d="M211 407h-159v20h69v322l-72 -23v22l95 31v-352h67v-20zM474 763l-299 -753h-29l294 753h34zM558 13h-192q0 62 15 92.5t68 76.5t68.5 68.5t15.5 47.5q0 63 -62 63q-34 0 -53.5 -21.5t-19.5 -55.5h-23q0 42 26.5 69.5t69.5 27.5q39 0 62 -22t23 -62q0 -35 -19.5 -59.5
t-66.5 -66.5t-63.5 -71t-16.5 -67h168v-20z" />
    <glyph glyph-name="onequarter" unicode="&#xbc;" 
d="M204 417h-159v20h69v322l-72 -23v22l95 31v-352h67v-20zM485 779l-348 -763h-34l348 763h34zM564 144h-52v-97h-23v97h-147v17l133 254h37v-251h52v-20zM489 164v234l-121 -234h121z" />
    <glyph glyph-name="threequarters" unicode="&#xbe;" 
d="M251 514q0 -46 -30 -76t-77 -30q-34 0 -58.5 16t-44.5 47l21 12q13 -26 32.5 -40t48.5 -14q37 0 60.5 21.5t23.5 58.5q0 44 -27 67t-70 23v20q33 0 56.5 21.5t23.5 54.5q0 28 -20.5 47.5t-48.5 19.5q-24 0 -43.5 -13.5t-31.5 -36.5l-20 11q15 28 40.5 43.5t56.5 15.5
q39 0 65 -26t26 -64q0 -28 -16 -49t-42 -32q36 -12 55.5 -36.5t19.5 -60.5zM500 769l-348 -763h-34l348 763h34zM519 129h-52v-97h-23v97h-147v17l133 254h37v-251h52v-20zM444 149v234l-121 -234h121z" />
  </font>
</defs>
</svg>
