<?xml version="1.0" standalone="no"?>
<!DOCTYPE svg PUBLIC "-//W3C//DTD SVG 1.1//EN" "http://www.w3.org/Graphics/SVG/1.1/DTD/svg11.dtd" >
<svg xmlns="http://www.w3.org/2000/svg" xmlns:xlink="http://www.w3.org/1999/xlink" version="1.1">
<metadata>
Created by FontForge 20160407 at Fri Oct  7 08:37:18 2016
 By Jimmy Warting
Copyright (c) 2014 by Julieta Ulanovsky. All rights reserved.
</metadata>
<defs>
<font id="Montserrat-Black" horiz-adv-x="690" >
  <font-face 
    font-family="Montserrat Black"
    font-weight="900"
    font-stretch="normal"
    units-per-em="1000"
    panose-1="0 0 10 0 0 0 0 0 0 0"
    ascent="800"
    descent="-200"
    x-height="547"
    cap-height="701"
    bbox="-273 -340 1502 981"
    underline-thickness="50"
    underline-position="-100"
    stemh="168"
    stemv="225"
    unicode-range="U+0020-FB02"
  />
<missing-glyph horiz-adv-x="500" 
d="M0 0v700h500v-700h-500zM250 395l170 255h-340zM280 350l170 -255v510zM80 50h340l-170 255zM50 605v-510l170 255z" />
    <glyph glyph-name="fi" unicode="fi" horiz-adv-x="761" 
d="M594 589c-67 0 -114 47 -114 114s47 114 114 114s114 -47 114 -114s-47 -114 -114 -114zM95 527v39c0 114 89 187 227 186c39 0 83 -6 111 -16l-7 -177c-17 12 -39 19 -55 19c-32 1 -52 -17 -52 -46v-5h106v-142h-106v-385h-224v385h-75v142h75zM481 547h225v-547h-225
v547z" />
    <glyph glyph-name="fl" unicode="fl" horiz-adv-x="771" 
d="M95 527v39c0 114 89 187 227 186c39 0 83 -6 111 -16l-7 -177c-17 12 -39 19 -55 19c-32 1 -52 -17 -52 -46v-5h106v-142h-106v-385h-224v385h-75v142h75zM711 742v-742h-225v742h225z" />
    <glyph glyph-name=".notdef" horiz-adv-x="500" 
d="M0 0v700h500v-700h-500zM250 395l170 255h-340zM280 350l170 -255v510zM80 50h340l-170 255zM50 605v-510l170 255z" />
    <glyph glyph-name="A" unicode="A" horiz-adv-x="799" 
d="M527 99h-263l-36 -99h-238l296 701h238l285 -701h-247zM470 265l-72 205l-74 -205h146z" />
    <glyph glyph-name="Aacute" unicode="&#xc1;" horiz-adv-x="799" 
d="M455 745h-160l107 189l190 -60zM527 99h-263l-36 -99h-238l296 701h238l285 -701h-247zM470 265l-72 205l-74 -205h146z" />
    <glyph glyph-name="Abreve" unicode="&#x102;" horiz-adv-x="799" 
d="M400 749c-107 0 -179 68 -184 174h135c3 -30 22 -50 49 -50s46 20 49 50h135c-5 -106 -77 -174 -184 -174zM527 99h-263l-36 -99h-238l296 701h238l285 -701h-247zM470 265l-72 205l-74 -205h146z" />
    <glyph glyph-name="Acircumflex" unicode="&#xc2;" horiz-adv-x="799" 
d="M345 761h-150l121 162h168l121 -162h-150l-55 82zM527 99h-263l-36 -99h-238l296 701h238l285 -701h-247zM470 265l-72 205l-74 -205h146z" />
    <glyph glyph-name="Adieresis" unicode="&#xc4;" horiz-adv-x="799" 
d="M296 761c-54 0 -91 38 -91 91c0 54 37 92 91 92s91 -38 91 -92c0 -53 -37 -91 -91 -91zM504 761c-54 0 -91 38 -91 91c0 54 37 92 91 92s91 -38 91 -92c0 -53 -37 -91 -91 -91zM527 99h-263l-36 -99h-238l296 701h238l285 -701h-247zM470 265l-72 205l-74 -205h146z" />
    <glyph glyph-name="Agrave" unicode="&#xc0;" horiz-adv-x="799" 
d="M352 745l-137 129l190 60l107 -189h-160zM527 99h-263l-36 -99h-238l296 701h238l285 -701h-247zM470 265l-72 205l-74 -205h146z" />
    <glyph glyph-name="Amacron" unicode="&#x100;" horiz-adv-x="799" 
d="M550 778h-300v148h300v-148zM527 99h-263l-36 -99h-238l296 701h238l285 -701h-247zM470 265l-72 205l-74 -205h146z" />
    <glyph glyph-name="Aogonek" unicode="&#x104;" horiz-adv-x="799" 
d="M809 0h-68c-22 -33 -38 -63 -38 -79c0 -10 6 -15 14 -15c13 0 26 11 37 30l55 -64c-28 -51 -71 -76 -120 -76c-42 0 -96 19 -96 88c0 41 19 80 43 116h-74l-35 99h-263l-36 -99h-238l296 701h238zM324 265h146l-72 205z" />
    <glyph glyph-name="Aring" unicode="&#xc5;" horiz-adv-x="799" 
d="M527 99h-263l-36 -99h-238l295 699c-10 18 -15 39 -15 62c0 75 59 134 134 134s134 -59 134 -134c0 -22 -5 -42 -14 -60l285 -701h-247zM404 803c-24 0 -42 -18 -42 -42s18 -42 42 -42s42 18 42 42s-18 42 -42 42zM470 265l-72 205l-74 -205h146z" />
    <glyph glyph-name="Atilde" unicode="&#xc3;" horiz-adv-x="799" 
d="M365 806c-16 0 -23 -12 -23 -38h-136c0 125 38 183 117 183c62 0 89 -40 112 -40c17 0 24 12 24 37h135c0 -124 -37 -182 -116 -182c-63 0 -89 40 -113 40zM527 99h-263l-36 -99h-238l296 701h238l285 -701h-247zM470 265l-72 205l-74 -205h146z" />
    <glyph glyph-name="AE" unicode="&#xc6;" horiz-adv-x="1147" 
d="M1109 176v-176h-602v122h-217l-60 -122h-240l390 701h720v-176h-361v-86h328v-176h-328v-87h370zM507 288v237h-17l-117 -237h134z" />
    <glyph glyph-name="B" unicode="B" horiz-adv-x="724" 
d="M50 701h355c169 0 278 -70 278 -177c0 -69 -46 -128 -118 -150c84 -19 139 -89 139 -177c0 -120 -111 -197 -282 -197h-372v701zM281 531v-100h111c32 0 53 20 53 51c0 30 -21 49 -53 49h-111zM281 277v-107h111c43 0 71 22 71 56c0 31 -28 51 -71 51h-111z" />
    <glyph glyph-name="C" unicode="C" horiz-adv-x="688" 
d="M395 708c107 0 224 -50 296 -128l-134 -159c-42 57 -105 94 -159 94c-84 0 -145 -67 -145 -160c0 -94 61 -162 145 -162c50 0 113 31 159 80l134 -143c-78 -85 -197 -140 -305 -140c-215 0 -371 153 -371 362c0 206 160 356 380 356z" />
    <glyph glyph-name="Cacute" unicode="&#x106;" horiz-adv-x="688" 
d="M586 874l-137 -129h-160l107 189zM395 708c107 0 224 -50 296 -128l-134 -159c-42 57 -105 94 -159 94c-84 0 -145 -67 -145 -160c0 -94 61 -162 145 -162c50 0 113 31 159 80l134 -143c-78 -85 -197 -140 -305 -140c-215 0 -371 153 -371 362c0 206 160 356 380 356z
" />
    <glyph glyph-name="Ccaron" unicode="&#x10c;" horiz-adv-x="688" 
d="M163 923h165l60 -90l60 90h165l-133 -178h-184zM395 708c107 0 224 -50 296 -128l-134 -159c-42 57 -105 94 -159 94c-84 0 -145 -67 -145 -160c0 -94 61 -162 145 -162c50 0 113 31 159 80l134 -143c-78 -85 -197 -140 -305 -140c-215 0 -371 153 -371 362
c0 206 160 356 380 356z" />
    <glyph glyph-name="Ccedilla" unicode="&#xc7;" horiz-adv-x="688" 
d="M398 193c50 0 113 31 159 80l134 -143c-63 -69 -153 -118 -243 -134l-25 -47c40 -14 66 -47 66 -83c0 -69 -55 -113 -141 -113c-30 0 -70 13 -101 34l40 90c10 -12 26 -20 41 -20c23 0 38 13 38 33c0 21 -17 34 -43 34c-9 0 -24 -2 -37 -5l39 75
c-183 26 -310 169 -310 358c0 206 160 356 380 356c107 0 224 -50 296 -128l-134 -159c-42 57 -105 94 -159 94c-84 0 -145 -67 -145 -160c0 -94 61 -162 145 -162z" />
    <glyph glyph-name="D" unicode="D" horiz-adv-x="759" 
d="M50 701h313c231 0 381 -137 381 -350s-153 -351 -390 -351h-304v701zM282 521v-341h87c84 0 138 66 138 169c0 104 -59 172 -149 172h-76z" />
    <glyph glyph-name="Eth" unicode="&#xd0;" horiz-adv-x="802" 
d="M93 701h313c231 0 381 -137 381 -350s-153 -351 -390 -351h-304v291h-93v119h93v291zM325 180h87c84 0 138 66 138 169c0 104 -59 172 -149 172h-76v-111h123v-119h-123v-111z" />
    <glyph glyph-name="Dcaron" unicode="&#x10e;" horiz-adv-x="759" 
d="M121 923h165l60 -90l60 90h165l-133 -178h-184zM50 701h313c231 0 381 -137 381 -350s-153 -351 -390 -351h-304v701zM282 521v-341h87c84 0 138 66 138 169c0 104 -59 172 -149 172h-76z" />
    <glyph glyph-name="Dcroat" unicode="&#x110;" horiz-adv-x="759" 
d="M502 778h-300v148h300v-148zM50 701h313c231 0 381 -137 381 -350s-153 -351 -390 -351h-304v701zM282 521v-341h87c84 0 138 66 138 169c0 104 -59 172 -149 172h-76z" />
    <glyph glyph-name="E" unicode="E" 
d="M643 525h-361v-86h328v-176h-328v-87h370v-176h-602v701h593v-176z" />
    <glyph glyph-name="Eacute" unicode="&#xc9;" 
d="M540 874l-137 -129h-160l107 189zM643 525h-361v-86h328v-176h-328v-87h370v-176h-602v701h593v-176z" />
    <glyph glyph-name="Ecaron" unicode="&#x11a;" 
d="M117 923h165l60 -90l60 90h165l-133 -178h-184zM643 525h-361v-86h328v-176h-328v-87h370v-176h-602v701h593v-176z" />
    <glyph glyph-name="Ecircumflex" unicode="&#xca;" 
d="M553 761h-150l-55 82l-55 -82h-150l121 162h168zM643 525h-361v-86h328v-176h-328v-87h370v-176h-602v701h593v-176z" />
    <glyph glyph-name="Edieresis" unicode="&#xcb;" 
d="M244 944c54 0 91 -38 91 -92c0 -53 -37 -91 -91 -91s-91 38 -91 91c0 54 37 92 91 92zM452 944c54 0 91 -38 91 -92c0 -53 -37 -91 -91 -91s-91 38 -91 91c0 54 37 92 91 92zM643 525h-361v-86h328v-176h-328v-87h370v-176h-602v701h593v-176z" />
    <glyph glyph-name="Edotaccent" unicode="&#x116;" 
d="M348 971c67 0 114 -47 114 -114s-47 -114 -114 -114s-114 47 -114 114s47 114 114 114zM643 525h-361v-86h328v-176h-328v-87h370v-176h-602v701h593v-176z" />
    <glyph glyph-name="Egrave" unicode="&#xc8;" 
d="M460 745h-160l-137 129l190 60zM643 525h-361v-86h328v-176h-328v-87h370v-176h-602v701h593v-176z" />
    <glyph glyph-name="Emacron" unicode="&#x112;" 
d="M498 778h-300v148h300v-148zM643 525h-361v-86h328v-176h-328v-87h370v-176h-602v701h593v-176z" />
    <glyph glyph-name="Eogonek" unicode="&#x118;" 
d="M643 525h-361v-86h328v-176h-328v-87h370v-176h-76c-22 -33 -38 -63 -38 -79c0 -10 6 -15 14 -15c13 0 26 11 37 30l55 -64c-28 -51 -71 -76 -120 -76c-42 0 -96 19 -96 88c0 41 19 80 43 116h-421v701h593v-176z" />
    <glyph glyph-name="F" unicode="F" horiz-adv-x="631" 
d="M614 525h-332v-121h311v-176h-311v-228h-232v701h564v-176z" />
    <glyph glyph-name="G" unicode="G" horiz-adv-x="738" 
d="M503 369h199v-289c-78 -52 -207 -90 -307 -90c-220 0 -380 152 -380 360c0 207 166 358 395 358c109 0 228 -42 303 -108l-131 -159c-47 45 -115 74 -173 74c-90 0 -156 -70 -156 -165c0 -97 67 -167 158 -167c24 0 58 9 92 23v163z" />
    <glyph glyph-name="Gbreve" unicode="&#x11e;" horiz-adv-x="738" 
d="M396 749c-107 0 -179 68 -184 174h135c3 -30 22 -50 49 -50s46 20 49 50h135c-5 -106 -77 -174 -184 -174zM503 369h199v-289c-78 -52 -207 -90 -307 -90c-220 0 -380 152 -380 360c0 207 166 358 395 358c109 0 228 -42 303 -108l-131 -159c-47 45 -115 74 -173 74
c-90 0 -156 -70 -156 -165c0 -97 67 -167 158 -167c24 0 58 9 92 23v163z" />
    <glyph glyph-name="Gcommaaccent" unicode="&#x122;" horiz-adv-x="738" 
d="M503 369h199v-289c-78 -52 -207 -90 -307 -90c-220 0 -380 152 -380 360c0 207 166 358 395 358c109 0 228 -42 303 -108l-131 -159c-47 45 -115 74 -173 74c-90 0 -156 -70 -156 -165c0 -97 67 -167 158 -167c24 0 58 9 92 23v163zM403 -33c54 0 102 -35 102 -101
c0 -31 -11 -57 -27 -80l-87 -126h-104l52 127c-27 18 -39 47 -39 78c0 60 43 102 103 102z" />
    <glyph glyph-name="H" unicode="H" horiz-adv-x="781" 
d="M731 0h-232v253h-217v-253h-232v701h232v-272h217v272h232v-701z" />
    <glyph glyph-name="I" unicode="I" horiz-adv-x="332" 
d="M282 0h-232v701h232v-701z" />
    <glyph glyph-name="IJ" unicode="&#x132;" horiz-adv-x="901" 
d="M282 0h-232v701h232v-701zM861 701v-464c0 -157 -103 -247 -264 -247c-113 0 -202 44 -273 122l105 150c55 -55 111 -79 146 -79c32 0 53 19 53 59v276h-238v183h471z" />
    <glyph glyph-name="Iacute" unicode="&#xcd;" horiz-adv-x="332" 
d="M358 874l-137 -129h-160l107 189zM282 0h-232v701h232v-701z" />
    <glyph glyph-name="Icircumflex" unicode="&#xce;" horiz-adv-x="332" 
d="M371 761h-150l-55 82l-55 -82h-150l121 162h168zM282 0h-232v701h232v-701z" />
    <glyph glyph-name="Idieresis" unicode="&#xcf;" horiz-adv-x="332" 
d="M62 944c54 0 91 -38 91 -92c0 -53 -37 -91 -91 -91s-91 38 -91 91c0 54 37 92 91 92zM270 944c54 0 91 -38 91 -92c0 -53 -37 -91 -91 -91s-91 38 -91 91c0 54 37 92 91 92zM282 0h-232v701h232v-701z" />
    <glyph glyph-name="Idotaccent" unicode="&#x130;" horiz-adv-x="332" 
d="M166 971c67 0 114 -47 114 -114s-47 -114 -114 -114s-114 47 -114 114s47 114 114 114zM282 0h-232v701h232v-701z" />
    <glyph glyph-name="Igrave" unicode="&#xcc;" horiz-adv-x="332" 
d="M278 745h-160l-137 129l190 60zM282 0h-232v701h232v-701z" />
    <glyph glyph-name="Imacron" unicode="&#x12a;" horiz-adv-x="332" 
d="M316 778h-300v148h300v-148zM282 0h-232v701h232v-701z" />
    <glyph glyph-name="Iogonek" unicode="&#x12e;" horiz-adv-x="332" 
d="M244 -64l55 -64c-28 -51 -71 -76 -120 -76c-42 0 -96 19 -96 88c0 41 19 80 43 116h-76v701h232v-701h-51c-22 -33 -38 -63 -38 -79c0 -10 6 -15 14 -15c13 0 26 11 37 30z" />
    <glyph glyph-name="Itilde" unicode="&#x128;" horiz-adv-x="332" 
d="M89 951c62 0 89 -40 112 -40c17 0 24 12 24 37h135c0 -124 -37 -182 -116 -182c-63 0 -89 40 -113 40c-16 0 -23 -12 -23 -38h-136c0 125 38 183 117 183zM282 0h-232v701h232v-701z" />
    <glyph glyph-name="J" unicode="J" horiz-adv-x="569" 
d="M529 701v-464c0 -157 -103 -247 -264 -247c-113 0 -202 44 -273 122l105 150c55 -55 111 -79 146 -79c32 0 53 19 53 59v276h-238v183h471z" />
    <glyph glyph-name="Jcircumflex" unicode="&#x134;" horiz-adv-x="569" 
d="M496 761h-150l-55 82l-55 -82h-150l121 162h168zM529 701v-464c0 -157 -103 -247 -264 -247c-113 0 -202 44 -273 122l105 150c55 -55 111 -79 146 -79c32 0 53 19 53 59v276h-238v183h471z" />
    <glyph glyph-name="K" unicode="K" horiz-adv-x="773" 
d="M496 0l-146 241l-68 -76v-165h-232v701h232v-243l209 243h267l-250 -282l265 -419h-277z" />
    <glyph glyph-name="Kcommaaccent" unicode="&#x136;" horiz-adv-x="773" 
d="M773 0h-277l-146 241l-68 -76v-165h-232v701h232v-243l209 243h267l-250 -282zM380 -33c54 0 102 -35 102 -101c0 -31 -11 -57 -27 -80l-87 -126h-104l52 127c-27 18 -39 47 -39 78c0 60 43 102 103 102z" />
    <glyph glyph-name="L" unicode="L" horiz-adv-x="584" 
d="M282 193h292v-193h-524v701h232v-508z" />
    <glyph glyph-name="Lacute" unicode="&#x139;" horiz-adv-x="584" 
d="M351 874l-137 -129h-160l107 189zM282 193h292v-193h-524v701h232v-508z" />
    <glyph glyph-name="Lcaron" unicode="&#x13d;" horiz-adv-x="584" 
d="M574 193v-193h-524v701h232v-508h292zM347 362l52 127c-27 18 -39 47 -39 78c0 60 43 102 103 102c54 0 102 -35 102 -101c0 -31 -11 -57 -27 -80l-87 -126h-104z" />
    <glyph glyph-name="Lcommaaccent" unicode="&#x13b;" horiz-adv-x="584" 
d="M574 193v-193h-524v701h232v-508h292zM299 -33c54 0 102 -35 102 -101c0 -31 -11 -57 -27 -80l-87 -126h-104l52 127c-27 18 -39 47 -39 78c0 60 43 102 103 102z" />
    <glyph glyph-name="Ldot" unicode="&#x13f;" horiz-adv-x="584" 
d="M282 193h292v-193h-524v701h232v-508zM429 599c61 0 103 -42 103 -102c0 -61 -42 -103 -103 -103c-60 0 -102 42 -102 103c0 60 42 102 102 102z" />
    <glyph glyph-name="Lslash" unicode="&#x141;" horiz-adv-x="606" 
d="M596 193v-193h-524v296l-64 -18l-38 134l102 30v259h232v-192l130 38l38 -135l-168 -49v-170h292z" />
    <glyph glyph-name="M" unicode="M" horiz-adv-x="896" 
d="M846 0h-202v384l-120 -316h-152l-120 316v-384h-202v701h245l153 -366l153 366h245v-701z" />
    <glyph glyph-name="N" unicode="N" horiz-adv-x="781" 
d="M731 0h-194l-276 358v-358h-211v701h194l277 -360v360h210v-701z" />
    <glyph glyph-name="Nacute" unicode="&#x143;" horiz-adv-x="781" 
d="M583 874l-137 -129h-160l107 189zM731 0h-194l-276 358v-358h-211v701h194l277 -360v360h210v-701z" />
    <glyph glyph-name="Ncaron" unicode="&#x147;" horiz-adv-x="781" 
d="M160 923h165l60 -90l60 90h165l-133 -178h-184zM731 0h-194l-276 358v-358h-211v701h194l277 -360v360h210v-701z" />
    <glyph glyph-name="Ncommaaccent" unicode="&#x145;" horiz-adv-x="781" 
d="M731 701v-701h-194l-276 358v-358h-211v701h194l277 -360v360h210zM398 -33c54 0 102 -35 102 -101c0 -31 -11 -57 -27 -80l-87 -126h-104l52 127c-27 18 -39 47 -39 78c0 60 43 102 103 102z" />
    <glyph glyph-name="Ntilde" unicode="&#xd1;" horiz-adv-x="781" 
d="M314 951c62 0 89 -40 112 -40c17 0 24 12 24 37h135c0 -124 -37 -182 -116 -182c-63 0 -89 40 -113 40c-16 0 -23 -12 -23 -38h-136c0 125 38 183 117 183zM731 0h-194l-276 358v-358h-211v701h194l277 -360v360h210v-701z" />
    <glyph glyph-name="O" unicode="O" horiz-adv-x="800" 
d="M400 708c223 0 385 -150 385 -357c0 -208 -162 -361 -385 -361s-385 152 -385 361c0 208 162 357 385 357zM403 515c-81 0 -150 -69 -150 -165s70 -167 150 -167s144 71 144 167s-64 165 -144 165z" />
    <glyph glyph-name="Oacute" unicode="&#xd3;" horiz-adv-x="800" 
d="M582 874l-137 -129h-160l107 189zM400 708c223 0 385 -150 385 -357c0 -208 -162 -361 -385 -361s-385 152 -385 361c0 208 162 357 385 357zM403 515c-81 0 -150 -69 -150 -165s70 -167 150 -167s144 71 144 167s-64 165 -144 165z" />
    <glyph glyph-name="Ocircumflex" unicode="&#xd4;" horiz-adv-x="800" 
d="M595 761h-150l-55 82l-55 -82h-150l121 162h168zM400 708c223 0 385 -150 385 -357c0 -208 -162 -361 -385 -361s-385 152 -385 361c0 208 162 357 385 357zM403 515c-81 0 -150 -69 -150 -165s70 -167 150 -167s144 71 144 167s-64 165 -144 165z" />
    <glyph glyph-name="Odieresis" unicode="&#xd6;" horiz-adv-x="800" 
d="M286 944c54 0 91 -38 91 -92c0 -53 -37 -91 -91 -91s-91 38 -91 91c0 54 37 92 91 92zM494 944c54 0 91 -38 91 -92c0 -53 -37 -91 -91 -91s-91 38 -91 91c0 54 37 92 91 92zM400 708c223 0 385 -150 385 -357c0 -208 -162 -361 -385 -361s-385 152 -385 361
c0 208 162 357 385 357zM403 515c-81 0 -150 -69 -150 -165s70 -167 150 -167s144 71 144 167s-64 165 -144 165z" />
    <glyph glyph-name="Ograve" unicode="&#xd2;" horiz-adv-x="800" 
d="M502 745h-160l-137 129l190 60zM400 708c223 0 385 -150 385 -357c0 -208 -162 -361 -385 -361s-385 152 -385 361c0 208 162 357 385 357zM403 515c-81 0 -150 -69 -150 -165s70 -167 150 -167s144 71 144 167s-64 165 -144 165z" />
    <glyph glyph-name="Ohungarumlaut" unicode="&#x150;" horiz-adv-x="800" 
d="M439 881l-89 -136h-160l87 189zM660 881l-89 -136h-160l87 189zM400 708c223 0 385 -150 385 -357c0 -208 -162 -361 -385 -361s-385 152 -385 361c0 208 162 357 385 357zM403 515c-81 0 -150 -69 -150 -165s70 -167 150 -167s144 71 144 167s-64 165 -144 165z" />
    <glyph glyph-name="Omacron" unicode="&#x14c;" horiz-adv-x="800" 
d="M540 778h-300v148h300v-148zM400 708c223 0 385 -150 385 -357c0 -208 -162 -361 -385 -361s-385 152 -385 361c0 208 162 357 385 357zM403 515c-81 0 -150 -69 -150 -165s70 -167 150 -167s144 71 144 167s-64 165 -144 165z" />
    <glyph glyph-name="Oslash" unicode="&#xd8;" horiz-adv-x="800" 
d="M609 806l-46 -128c135 -54 222 -175 222 -327c0 -208 -162 -361 -385 -361c-29 0 -57 3 -83 7l-37 -101h-127l51 140c-116 60 -189 175 -189 315c0 208 162 357 385 357c16 0 31 -1 46 -2l36 100h127zM253 350c0 -38 11 -71 29 -98l94 260c-69 -13 -123 -77 -123 -162z
M403 183c80 0 144 71 144 167c0 56 -22 102 -56 132l-107 -298c6 -1 12 -1 19 -1z" />
    <glyph glyph-name="Otilde" unicode="&#xd5;" horiz-adv-x="800" 
d="M313 951c62 0 89 -40 112 -40c17 0 24 12 24 37h135c0 -124 -37 -182 -116 -182c-63 0 -89 40 -113 40c-16 0 -23 -12 -23 -38h-136c0 125 38 183 117 183zM400 708c223 0 385 -150 385 -357c0 -208 -162 -361 -385 -361s-385 152 -385 361c0 208 162 357 385 357z
M403 515c-81 0 -150 -69 -150 -165s70 -167 150 -167s144 71 144 167s-64 165 -144 165z" />
    <glyph glyph-name="OE" unicode="&#x152;" horiz-adv-x="1127" 
d="M1089 176v-176h-690c-221 0 -384 146 -384 349c0 202 161 352 384 352h681v-176h-361v-86h328v-176h-328v-87h370zM487 184v330h-88c-85 0 -146 -70 -146 -166c0 -95 61 -165 146 -165z" />
    <glyph glyph-name="P" unicode="P" horiz-adv-x="686" 
d="M50 701h329c182 0 287 -91 287 -251c0 -170 -105 -268 -287 -268h-97v-182h-232v701zM282 525v-167h85c50 0 79 31 79 85c0 52 -29 82 -79 82h-85z" />
    <glyph glyph-name="Thorn" unicode="&#xde;" horiz-adv-x="698" 
d="M282 615h100c180 0 296 -97 296 -248c0 -161 -116 -265 -296 -265h-100v-102h-232v701h232v-86zM282 278h90c41 0 68 32 68 82c0 48 -27 79 -68 79h-90v-161z" />
    <glyph glyph-name="Q" unicode="Q" horiz-adv-x="797" 
d="M738 38l77 -137c-54 -47 -141 -78 -214 -78c-106 0 -192 66 -229 168c-208 12 -357 160 -357 360c0 208 162 357 385 357s385 -150 385 -357c0 -151 -85 -273 -217 -328c15 -20 35 -33 58 -33c28 0 72 19 112 48zM253 350c0 -96 70 -167 150 -167s144 71 144 167
s-64 165 -144 165c-81 0 -150 -69 -150 -165z" />
    <glyph glyph-name="R" unicode="R" horiz-adv-x="725" 
d="M453 0l-84 182h-87v-182h-232v701h339c190 0 299 -91 299 -251c0 -102 -39 -178 -111 -222l138 -228h-262zM282 358h107c50 0 79 31 79 85c0 52 -29 82 -79 82h-107v-167z" />
    <glyph glyph-name="Racute" unicode="&#x154;" horiz-adv-x="725" 
d="M427 745h-160l107 189l190 -60zM453 0l-84 182h-87v-182h-232v701h339c190 0 299 -91 299 -251c0 -102 -39 -178 -111 -222l138 -228h-262zM282 358h107c50 0 79 31 79 85c0 52 -29 82 -79 82h-107v-167z" />
    <glyph glyph-name="Rcaron" unicode="&#x158;" horiz-adv-x="725" 
d="M274 745l-133 178h165l60 -90l60 90h165l-133 -178h-184zM453 0l-84 182h-87v-182h-232v701h339c190 0 299 -91 299 -251c0 -102 -39 -178 -111 -222l138 -228h-262zM282 358h107c50 0 79 31 79 85c0 52 -29 82 -79 82h-107v-167z" />
    <glyph glyph-name="Rcommaaccent" unicode="&#x156;" horiz-adv-x="725" 
d="M282 0h-232v701h339c190 0 299 -91 299 -251c0 -102 -39 -178 -111 -222l138 -228h-262l-84 182h-87v-182zM282 358h107c50 0 79 31 79 85c0 52 -29 82 -79 82h-107v-167zM366 -33c54 0 102 -35 102 -101c0 -31 -11 -57 -27 -80l-87 -126h-104l52 127
c-27 18 -39 47 -39 78c0 60 43 102 103 102z" />
    <glyph glyph-name="S" unicode="S" horiz-adv-x="664" 
d="M354 711c111 0 226 -33 305 -83l-84 -176c-71 39 -180 82 -241 82c-26 0 -43 -8 -43 -29c0 -88 363 -33 363 -287c0 -156 -137 -225 -295 -225c-122 0 -258 41 -351 112l86 174c72 -60 196 -109 267 -109c34 0 56 11 56 36c0 91 -363 31 -363 277c0 140 118 228 300 228z
" />
    <glyph glyph-name="Sacute" unicode="&#x15a;" horiz-adv-x="664" 
d="M551 874l-137 -129h-160l107 189zM354 711c111 0 226 -33 305 -83l-84 -176c-71 39 -180 82 -241 82c-26 0 -43 -8 -43 -29c0 -88 363 -33 363 -287c0 -156 -137 -225 -295 -225c-122 0 -258 41 -351 112l86 174c72 -60 196 -109 267 -109c34 0 56 11 56 36
c0 91 -363 31 -363 277c0 140 118 228 300 228z" />
    <glyph glyph-name="Scaron" unicode="&#x160;" horiz-adv-x="664" 
d="M128 923h165l60 -90l60 90h165l-133 -178h-184zM354 711c111 0 226 -33 305 -83l-84 -176c-71 39 -180 82 -241 82c-26 0 -43 -8 -43 -29c0 -88 363 -33 363 -287c0 -156 -137 -225 -295 -225c-122 0 -258 41 -351 112l86 174c72 -60 196 -109 267 -109c34 0 56 11 56 36
c0 91 -363 31 -363 277c0 140 118 228 300 228z" />
    <glyph glyph-name="Scedilla" unicode="&#x15e;" horiz-adv-x="664" 
d="M291 505c0 -88 363 -33 363 -287c0 -133 -100 -203 -228 -221l-26 -48c40 -14 66 -47 66 -83c0 -69 -55 -113 -141 -113c-30 0 -70 13 -101 34l40 90c10 -12 26 -20 41 -20c23 0 38 13 38 33c0 21 -17 34 -43 34c-9 0 -24 -2 -37 -5l40 77c-106 10 -216 49 -295 109
l86 174c72 -60 196 -109 267 -109c34 0 56 11 56 36c0 91 -363 31 -363 277c0 140 118 228 300 228c111 0 226 -33 305 -83l-84 -176c-71 39 -180 82 -241 82c-26 0 -43 -8 -43 -29z" />
    <glyph glyph-name="Scommaaccent" unicode="&#x218;" horiz-adv-x="664" 
d="M291 505c0 -88 363 -33 363 -287c0 -156 -137 -225 -295 -225c-122 0 -258 41 -351 112l86 174c72 -60 196 -109 267 -109c34 0 56 11 56 36c0 91 -363 31 -363 277c0 140 118 228 300 228c111 0 226 -33 305 -83l-84 -176c-71 39 -180 82 -241 82c-26 0 -43 -8 -43 -29z
M352 -33c54 0 102 -35 102 -101c0 -31 -11 -57 -27 -80l-87 -126h-104l52 127c-27 18 -39 47 -39 78c0 60 43 102 103 102z" />
    <glyph glyph-name="T" unicode="T" horiz-adv-x="641" 
d="M636 518h-200v-518h-232v518h-199v183h631v-183z" />
    <glyph glyph-name="Tcaron" unicode="&#x164;" horiz-adv-x="641" 
d="M106 923h165l60 -90l60 90h165l-133 -178h-184zM636 518h-200v-518h-232v518h-199v183h631v-183z" />
    <glyph glyph-name="Tcedilla" unicode="&#x162;" horiz-adv-x="641" 
d="M636 701v-183h-200v-518h-45l-27 -51c40 -14 66 -47 66 -83c0 -69 -55 -113 -141 -113c-30 0 -70 13 -101 34l40 90c10 -12 26 -20 41 -20c23 0 38 13 38 33c0 21 -17 34 -43 34c-9 0 -24 -2 -37 -5l42 81h-65v518h-199v183h631z" />
    <glyph glyph-name="Tcommaaccent" unicode="&#x21a;" horiz-adv-x="641" 
d="M636 701v-183h-200v-518h-232v518h-199v183h631zM316 -33c54 0 102 -35 102 -101c0 -31 -11 -57 -27 -80l-87 -126h-104l52 127c-27 18 -39 47 -39 78c0 60 43 102 103 102z" />
    <glyph glyph-name="U" unicode="U" horiz-adv-x="753" 
d="M713 701v-404c0 -186 -131 -307 -334 -307c-204 0 -339 121 -339 307v404h232v-404c0 -69 50 -114 108 -114c57 0 101 44 101 114v404h232z" />
    <glyph glyph-name="Uacute" unicode="&#xda;" horiz-adv-x="753" 
d="M569 874l-137 -129h-160l107 189zM713 701v-404c0 -186 -131 -307 -334 -307c-204 0 -339 121 -339 307v404h232v-404c0 -69 50 -114 108 -114c57 0 101 44 101 114v404h232z" />
    <glyph glyph-name="Ucircumflex" unicode="&#xdb;" horiz-adv-x="753" 
d="M582 761h-150l-55 82l-55 -82h-150l121 162h168zM713 701v-404c0 -186 -131 -307 -334 -307c-204 0 -339 121 -339 307v404h232v-404c0 -69 50 -114 108 -114c57 0 101 44 101 114v404h232z" />
    <glyph glyph-name="Udieresis" unicode="&#xdc;" horiz-adv-x="753" 
d="M273 944c54 0 91 -38 91 -92c0 -53 -37 -91 -91 -91s-91 38 -91 91c0 54 37 92 91 92zM481 944c54 0 91 -38 91 -92c0 -53 -37 -91 -91 -91s-91 38 -91 91c0 54 37 92 91 92zM713 701v-404c0 -186 -131 -307 -334 -307c-204 0 -339 121 -339 307v404h232v-404
c0 -69 50 -114 108 -114c57 0 101 44 101 114v404h232z" />
    <glyph glyph-name="Ugrave" unicode="&#xd9;" horiz-adv-x="753" 
d="M489 745h-160l-137 129l190 60zM713 701v-404c0 -186 -131 -307 -334 -307c-204 0 -339 121 -339 307v404h232v-404c0 -69 50 -114 108 -114c57 0 101 44 101 114v404h232z" />
    <glyph glyph-name="Uhungarumlaut" unicode="&#x170;" horiz-adv-x="753" 
d="M426 881l-89 -136h-160l87 189zM647 881l-89 -136h-160l87 189zM713 701v-404c0 -186 -131 -307 -334 -307c-204 0 -339 121 -339 307v404h232v-404c0 -69 50 -114 108 -114c57 0 101 44 101 114v404h232z" />
    <glyph glyph-name="Umacron" unicode="&#x16a;" horiz-adv-x="753" 
d="M527 778h-300v148h300v-148zM713 701v-404c0 -186 -131 -307 -334 -307c-204 0 -339 121 -339 307v404h232v-404c0 -69 50 -114 108 -114c57 0 101 44 101 114v404h232z" />
    <glyph glyph-name="Uogonek" unicode="&#x172;" horiz-adv-x="753" 
d="M713 701v-404c0 -137 -71 -238 -189 -283c-27 -39 -48 -74 -48 -93c0 -10 6 -15 14 -15c13 0 26 11 37 30l55 -64c-28 -51 -71 -76 -120 -76c-42 0 -96 19 -96 88c0 37 16 73 37 107l-24 -1c-204 0 -339 121 -339 307v404h232v-404c0 -69 50 -114 108 -114
c57 0 101 44 101 114v404h232z" />
    <glyph glyph-name="Uring" unicode="&#x16e;" horiz-adv-x="753" 
d="M377 981c69 0 124 -55 124 -124s-55 -124 -124 -124s-124 55 -124 124s55 124 124 124zM377 896c-22 0 -39 -17 -39 -39s17 -39 39 -39s39 17 39 39s-17 39 -39 39zM713 701v-404c0 -186 -131 -307 -334 -307c-204 0 -339 121 -339 307v404h232v-404
c0 -69 50 -114 108 -114c57 0 101 44 101 114v404h232z" />
    <glyph glyph-name="V" unicode="V" horiz-adv-x="764" 
d="M501 0h-240l-266 701h248l145 -460l144 460h237z" />
    <glyph glyph-name="W" unicode="W" horiz-adv-x="1121" 
d="M897 0h-239l-97 419l-100 -419h-239l-227 701h248l106 -460l104 459l226 1l106 -460l104 460h237z" />
    <glyph glyph-name="Wacute" unicode="&#x1e82;" horiz-adv-x="1121" 
d="M698 874l-137 -129h-160l107 189zM897 0h-239l-97 419l-100 -419h-239l-227 701h248l106 -460l104 459l226 1l106 -460l104 460h237z" />
    <glyph glyph-name="Wcircumflex" unicode="&#x174;" horiz-adv-x="1121" 
d="M711 761h-150l-55 82l-55 -82h-150l121 162h168zM897 0h-239l-97 419l-100 -419h-239l-227 701h248l106 -460l104 459l226 1l106 -460l104 460h237z" />
    <glyph glyph-name="Wdieresis" unicode="&#x1e84;" horiz-adv-x="1121" 
d="M402 944c54 0 91 -38 91 -92c0 -53 -37 -91 -91 -91s-91 38 -91 91c0 54 37 92 91 92zM610 944c54 0 91 -38 91 -92c0 -53 -37 -91 -91 -91s-91 38 -91 91c0 54 37 92 91 92zM897 0h-239l-97 419l-100 -419h-239l-227 701h248l106 -460l104 459l226 1l106 -460l104 460
h237z" />
    <glyph glyph-name="Wgrave" unicode="&#x1e80;" horiz-adv-x="1121" 
d="M618 745h-160l-137 129l190 60zM897 0h-239l-97 419l-100 -419h-239l-227 701h248l106 -460l104 459l226 1l106 -460l104 460h237z" />
    <glyph glyph-name="X" unicode="X" horiz-adv-x="773" 
d="M530 367l248 -367h-278l-118 181l-116 -181h-271l246 356l-231 345h270l102 -165l102 165h273z" />
    <glyph glyph-name="Y" unicode="Y" horiz-adv-x="719" 
d="M478 218v-218h-232v213l-256 488h231l141 -270l136 270h231z" />
    <glyph glyph-name="Yacute" unicode="&#xdd;" horiz-adv-x="719" 
d="M415 745h-160l107 189l190 -60zM478 218v-218h-232v213l-256 488h231l141 -270l136 270h231z" />
    <glyph glyph-name="Ycircumflex" unicode="&#x176;" horiz-adv-x="719" 
d="M305 761h-150l121 162h168l121 -162h-150l-55 82zM478 218v-218h-232v213l-256 488h231l141 -270l136 270h231z" />
    <glyph glyph-name="Ydieresis" unicode="&#x178;" horiz-adv-x="719" 
d="M256 761c-54 0 -91 38 -91 91c0 54 37 92 91 92s91 -38 91 -92c0 -53 -37 -91 -91 -91zM464 761c-54 0 -91 38 -91 91c0 54 37 92 91 92s91 -38 91 -92c0 -53 -37 -91 -91 -91zM478 218v-218h-232v213l-256 488h231l141 -270l136 270h231z" />
    <glyph glyph-name="Ygrave" unicode="&#x1ef2;" horiz-adv-x="719" 
d="M312 745l-137 129l190 60l107 -189h-160zM478 218v-218h-232v213l-256 488h231l141 -270l136 270h231z" />
    <glyph glyph-name="Z" unicode="Z" horiz-adv-x="683" 
d="M656 556l-327 -378h334v-178h-643v145l327 378h-315v178h624v-145z" />
    <glyph glyph-name="Zacute" unicode="&#x179;" horiz-adv-x="683" 
d="M554 874l-137 -129h-160l107 189zM656 556l-327 -378h334v-178h-643v145l327 378h-315v178h624v-145z" />
    <glyph glyph-name="Zcaron" unicode="&#x17d;" horiz-adv-x="683" 
d="M131 923h165l60 -90l60 90h165l-133 -178h-184zM656 556l-327 -378h334v-178h-643v145l327 378h-315v178h624v-145z" />
    <glyph glyph-name="Zdotaccent" unicode="&#x17b;" horiz-adv-x="683" 
d="M362 971c67 0 114 -47 114 -114s-47 -114 -114 -114s-114 47 -114 114s47 114 114 114zM656 556l-327 -378h334v-178h-643v145l327 378h-315v178h624v-145z" />
    <glyph glyph-name="a" unicode="a" horiz-adv-x="613" 
d="M321 557c158 0 252 -74 252 -203v-354h-221v59c-32 -44 -84 -69 -154 -69c-116 0 -183 68 -183 172c0 108 73 165 212 167h125c-1 38 -30 60 -85 60c-41 0 -104 -12 -166 -35l-50 150c93 34 189 53 270 53zM276 133c29 0 58 15 76 42v50h-78c-31 0 -48 -15 -48 -44
c0 -30 18 -48 50 -48z" />
    <glyph glyph-name="aacute" unicode="&#xe1;" horiz-adv-x="613" 
d="M363 591h-160l107 189l190 -60zM321 557c158 0 252 -74 252 -203v-354h-221v59c-32 -44 -84 -69 -154 -69c-116 0 -183 68 -183 172c0 108 73 165 212 167h125c-1 38 -30 60 -85 60c-41 0 -104 -12 -166 -35l-50 150c93 34 189 53 270 53zM276 133c29 0 58 15 76 42v50
h-78c-31 0 -48 -15 -48 -44c0 -30 18 -48 50 -48z" />
    <glyph glyph-name="abreve" unicode="&#x103;" horiz-adv-x="613" 
d="M308 595c-107 0 -179 68 -184 174h135c3 -30 22 -50 49 -50s46 20 49 50h135c-5 -106 -77 -174 -184 -174zM321 557c158 0 252 -74 252 -203v-354h-221v59c-32 -44 -84 -69 -154 -69c-116 0 -183 68 -183 172c0 108 73 165 212 167h125c-1 38 -30 60 -85 60
c-41 0 -104 -12 -166 -35l-50 150c93 34 189 53 270 53zM276 133c29 0 58 15 76 42v50h-78c-31 0 -48 -15 -48 -44c0 -30 18 -48 50 -48z" />
    <glyph glyph-name="acircumflex" unicode="&#xe2;" horiz-adv-x="613" 
d="M253 607h-150l121 162h168l121 -162h-150l-55 82zM321 557c158 0 252 -74 252 -203v-354h-221v59c-32 -44 -84 -69 -154 -69c-116 0 -183 68 -183 172c0 108 73 165 212 167h125c-1 38 -30 60 -85 60c-41 0 -104 -12 -166 -35l-50 150c93 34 189 53 270 53zM276 133
c29 0 58 15 76 42v50h-78c-31 0 -48 -15 -48 -44c0 -30 18 -48 50 -48z" />
    <glyph glyph-name="adieresis" unicode="&#xe4;" horiz-adv-x="613" 
d="M204 607c-54 0 -91 38 -91 91c0 54 37 92 91 92s91 -38 91 -92c0 -53 -37 -91 -91 -91zM412 607c-54 0 -91 38 -91 91c0 54 37 92 91 92s91 -38 91 -92c0 -53 -37 -91 -91 -91zM321 557c158 0 252 -74 252 -203v-354h-221v59c-32 -44 -84 -69 -154 -69
c-116 0 -183 68 -183 172c0 108 73 165 212 167h125c-1 38 -30 60 -85 60c-41 0 -104 -12 -166 -35l-50 150c93 34 189 53 270 53zM276 133c29 0 58 15 76 42v50h-78c-31 0 -48 -15 -48 -44c0 -30 18 -48 50 -48z" />
    <glyph glyph-name="agrave" unicode="&#xe0;" horiz-adv-x="613" 
d="M260 591l-137 129l190 60l107 -189h-160zM321 557c158 0 252 -74 252 -203v-354h-221v59c-32 -44 -84 -69 -154 -69c-116 0 -183 68 -183 172c0 108 73 165 212 167h125c-1 38 -30 60 -85 60c-41 0 -104 -12 -166 -35l-50 150c93 34 189 53 270 53zM276 133
c29 0 58 15 76 42v50h-78c-31 0 -48 -15 -48 -44c0 -30 18 -48 50 -48z" />
    <glyph glyph-name="amacron" unicode="&#x101;" horiz-adv-x="613" 
d="M458 624h-300v148h300v-148zM321 557c158 0 252 -74 252 -203v-354h-221v59c-32 -44 -84 -69 -154 -69c-116 0 -183 68 -183 172c0 108 73 165 212 167h125c-1 38 -30 60 -85 60c-41 0 -104 -12 -166 -35l-50 150c93 34 189 53 270 53zM276 133c29 0 58 15 76 42v50h-78
c-31 0 -48 -15 -48 -44c0 -30 18 -48 50 -48z" />
    <glyph glyph-name="aogonek" unicode="&#x105;" horiz-adv-x="618" 
d="M323 557c160 0 255 -74 255 -203v-354h-47c-22 -33 -38 -63 -38 -79c0 -10 6 -15 14 -15c13 0 26 11 37 30l55 -64c-28 -51 -71 -76 -120 -76c-42 0 -96 19 -96 88c0 41 19 80 43 116h-69v60c-33 -45 -86 -71 -157 -71c-117 0 -185 69 -185 173c0 108 74 165 214 167h128
v1c-2 37 -32 59 -87 59c-42 0 -106 -12 -169 -35l-50 150c94 34 191 53 272 53zM357 225h-81c-32 0 -50 -15 -50 -44c0 -30 19 -48 52 -48c30 0 60 15 79 42v50z" />
    <glyph glyph-name="aring" unicode="&#xe5;" horiz-adv-x="613" 
d="M308 579c-69 0 -124 55 -124 124s55 124 124 124s124 -55 124 -124s-55 -124 -124 -124zM308 742c-22 0 -39 -17 -39 -39s17 -39 39 -39s39 17 39 39s-17 39 -39 39zM321 557c158 0 252 -74 252 -203v-354h-221v59c-32 -44 -84 -69 -154 -69c-116 0 -183 68 -183 172
c0 108 73 165 212 167h125c-1 38 -30 60 -85 60c-41 0 -104 -12 -166 -35l-50 150c93 34 189 53 270 53zM276 133c29 0 58 15 76 42v50h-78c-31 0 -48 -15 -48 -44c0 -30 18 -48 50 -48z" />
    <glyph glyph-name="atilde" unicode="&#xe3;" horiz-adv-x="613" 
d="M273 652c-16 0 -23 -12 -23 -38h-136c0 125 38 183 117 183c62 0 89 -40 112 -40c17 0 24 12 24 37h135c0 -124 -37 -182 -116 -182c-63 0 -89 40 -113 40zM321 557c158 0 252 -74 252 -203v-354h-221v59c-32 -44 -84 -69 -154 -69c-116 0 -183 68 -183 172
c0 108 73 165 212 167h125c-1 38 -30 60 -85 60c-41 0 -104 -12 -166 -35l-50 150c93 34 189 53 270 53zM276 133c29 0 58 15 76 42v50h-78c-31 0 -48 -15 -48 -44c0 -30 18 -48 50 -48z" />
    <glyph glyph-name="ae" unicode="&#xe6;" horiz-adv-x="958" 
d="M650 555c192 0 304 -130 292 -332h-357c15 -43 47 -65 91 -65c39 0 78 17 112 49l117 -115c-58 -64 -142 -100 -249 -100c-102 0 -176 37 -220 101c-41 -66 -114 -104 -216 -104c-129 0 -205 69 -205 173c0 108 74 165 213 167h127c-1 38 -31 60 -86 60
c-42 0 -106 -12 -168 -35l-50 150c94 34 190 53 271 53c73 0 132 -15 175 -45c41 28 92 43 153 43zM580 327h137c3 45 -25 78 -65 78c-39 0 -63 -32 -72 -78zM277 133c29 0 59 15 78 42v50h-80c-31 0 -49 -15 -49 -44c0 -30 19 -48 51 -48z" />
    <glyph glyph-name="b" unicode="b" 
d="M424 555c152 0 251 -112 251 -285c0 -169 -96 -278 -245 -278c-59 0 -109 23 -145 64v-56h-225v742h225v-250c35 41 83 63 139 63zM366 170c50 0 82 42 82 106s-32 106 -82 106c-49 0 -81 -42 -81 -106s32 -106 81 -106z" />
    <glyph glyph-name="c" unicode="c" horiz-adv-x="561" 
d="M304 555c119 0 214 -58 259 -158l-179 -76c-14 33 -38 52 -70 52c-44 0 -72 -40 -72 -101c0 -62 28 -102 72 -102c32 0 55 18 67 59l182 -84c-40 -97 -136 -153 -261 -153c-174 0 -287 110 -287 279c0 172 114 284 289 284z" />
    <glyph glyph-name="cacute" unicode="&#x107;" horiz-adv-x="561" 
d="M490 720l-137 -129h-160l107 189zM304 555c119 0 214 -58 259 -158l-179 -76c-14 33 -38 52 -70 52c-44 0 -72 -40 -72 -101c0 -62 28 -102 72 -102c32 0 55 18 67 59l182 -84c-40 -97 -136 -153 -261 -153c-174 0 -287 110 -287 279c0 172 114 284 289 284z" />
    <glyph glyph-name="ccaron" unicode="&#x10d;" horiz-adv-x="561" 
d="M67 769h165l60 -90l60 90h165l-133 -178h-184zM304 555c119 0 214 -58 259 -158l-179 -76c-14 33 -38 52 -70 52c-44 0 -72 -40 -72 -101c0 -62 28 -102 72 -102c32 0 55 18 67 59l182 -84c-40 -97 -136 -153 -261 -153c-174 0 -287 110 -287 279c0 172 114 284 289 284z
" />
    <glyph glyph-name="ccedilla" unicode="&#xe7;" horiz-adv-x="561" 
d="M314 170c32 0 55 18 67 59l182 -84c-32 -78 -101 -130 -192 -147l-26 -49c40 -14 66 -47 66 -83c0 -69 -55 -113 -141 -113c-30 0 -70 13 -101 34l40 90c10 -12 26 -20 41 -20c23 0 38 13 38 33c0 21 -17 34 -43 34c-9 0 -24 -2 -37 -5l40 77c-143 21 -233 124 -233 275
c0 172 114 284 289 284c119 0 214 -58 259 -158l-179 -76c-14 33 -38 52 -70 52c-44 0 -72 -40 -72 -101c0 -62 28 -102 72 -102z" />
    <glyph glyph-name="d" unicode="d" 
d="M630 742v-742h-225v55c-35 -41 -83 -63 -139 -63c-152 0 -251 112 -251 285c0 169 96 278 245 278c59 0 109 -23 145 -64v251h225zM324 165c49 0 81 42 81 106s-32 106 -81 106c-50 0 -82 -42 -82 -106s32 -106 82 -106z" />
    <glyph glyph-name="eth" unicode="&#xf0;" horiz-adv-x="617" 
d="M592 614l-96 -33c68 -80 106 -176 106 -278c0 -190 -125 -313 -318 -313c-167 0 -275 93 -275 237c0 134 89 221 227 221c56 0 113 -15 145 -39c-14 36 -39 72 -74 107l-175 -60l-34 100l113 39c-39 26 -82 49 -127 68l151 89c65 -22 123 -52 173 -89l150 52zM292 174
c42 0 69 25 69 63s-27 63 -70 63c-41 0 -67 -24 -67 -62c0 -39 27 -64 68 -64z" />
    <glyph glyph-name="dcaron" unicode="&#x10f;" horiz-adv-x="847" 
d="M405 742h225v-742h-225v55c-35 -41 -83 -63 -139 -63c-152 0 -251 112 -251 285c0 169 96 278 245 278c59 0 109 -23 145 -64v251zM773 669c54 0 102 -35 102 -101c0 -31 -11 -57 -27 -80l-87 -126h-104l52 127c-27 18 -39 47 -39 78c0 60 43 102 103 102zM324 165
c49 0 81 42 81 106s-32 106 -81 106c-50 0 -82 -42 -82 -106s32 -106 82 -106z" />
    <glyph glyph-name="dcroat" unicode="&#x111;" horiz-adv-x="692" 
d="M692 574h-62v-574h-225v55c-35 -41 -83 -63 -139 -63c-152 0 -251 112 -251 285c0 169 96 278 245 278c59 0 109 -23 145 -64v83h-73v113h73v55h225v-55h62v-113zM324 165c49 0 81 42 81 106s-32 106 -81 106c-50 0 -82 -42 -82 -106s32 -106 82 -106z" />
    <glyph glyph-name="e" unicode="e" horiz-adv-x="614" 
d="M307 555c191 0 303 -130 291 -332h-356c15 -43 47 -65 91 -65c38 0 77 17 111 49l117 -115c-58 -64 -142 -100 -248 -100c-187 0 -298 110 -298 279c0 173 116 284 292 284zM237 327h136c3 45 -25 78 -64 78s-63 -32 -72 -78z" />
    <glyph glyph-name="eacute" unicode="&#xe9;" horiz-adv-x="614" 
d="M358 591h-160l107 189l190 -60zM307 555c191 0 303 -130 291 -332h-356c15 -43 47 -65 91 -65c38 0 77 17 111 49l117 -115c-58 -64 -142 -100 -248 -100c-187 0 -298 110 -298 279c0 173 116 284 292 284zM237 327h136c3 45 -25 78 -64 78s-63 -32 -72 -78z" />
    <glyph glyph-name="ecaron" unicode="&#x11b;" horiz-adv-x="614" 
d="M205 591l-133 178h165l60 -90l60 90h165l-133 -178h-184zM307 555c191 0 303 -130 291 -332h-356c15 -43 47 -65 91 -65c38 0 77 17 111 49l117 -115c-58 -64 -142 -100 -248 -100c-187 0 -298 110 -298 279c0 173 116 284 292 284zM237 327h136c3 45 -25 78 -64 78
s-63 -32 -72 -78z" />
    <glyph glyph-name="ecircumflex" unicode="&#xea;" horiz-adv-x="614" 
d="M248 607h-150l121 162h168l121 -162h-150l-55 82zM307 555c191 0 303 -130 291 -332h-356c15 -43 47 -65 91 -65c38 0 77 17 111 49l117 -115c-58 -64 -142 -100 -248 -100c-187 0 -298 110 -298 279c0 173 116 284 292 284zM237 327h136c3 45 -25 78 -64 78
s-63 -32 -72 -78z" />
    <glyph glyph-name="edieresis" unicode="&#xeb;" horiz-adv-x="614" 
d="M199 607c-54 0 -91 38 -91 91c0 54 37 92 91 92s91 -38 91 -92c0 -53 -37 -91 -91 -91zM407 607c-54 0 -91 38 -91 91c0 54 37 92 91 92s91 -38 91 -92c0 -53 -37 -91 -91 -91zM307 555c191 0 303 -130 291 -332h-356c15 -43 47 -65 91 -65c38 0 77 17 111 49l117 -115
c-58 -64 -142 -100 -248 -100c-187 0 -298 110 -298 279c0 173 116 284 292 284zM237 327h136c3 45 -25 78 -64 78s-63 -32 -72 -78z" />
    <glyph glyph-name="edotaccent" unicode="&#x117;" horiz-adv-x="614" 
d="M303 589c-67 0 -114 47 -114 114s47 114 114 114s114 -47 114 -114s-47 -114 -114 -114zM307 555c191 0 303 -130 291 -332h-356c15 -43 47 -65 91 -65c38 0 77 17 111 49l117 -115c-58 -64 -142 -100 -248 -100c-187 0 -298 110 -298 279c0 173 116 284 292 284z
M237 327h136c3 45 -25 78 -64 78s-63 -32 -72 -78z" />
    <glyph glyph-name="egrave" unicode="&#xe8;" horiz-adv-x="614" 
d="M255 591l-137 129l190 60l107 -189h-160zM307 555c191 0 303 -130 291 -332h-356c15 -43 47 -65 91 -65c38 0 77 17 111 49l117 -115c-58 -64 -142 -100 -248 -100c-187 0 -298 110 -298 279c0 173 116 284 292 284zM237 327h136c3 45 -25 78 -64 78s-63 -32 -72 -78z
" />
    <glyph glyph-name="emacron" unicode="&#x113;" horiz-adv-x="614" 
d="M453 624h-300v148h300v-148zM307 555c191 0 303 -130 291 -332h-356c15 -43 47 -65 91 -65c38 0 77 17 111 49l117 -115c-58 -64 -142 -100 -248 -100c-187 0 -298 110 -298 279c0 173 116 284 292 284zM237 327h136c3 45 -25 78 -64 78s-63 -32 -72 -78z" />
    <glyph glyph-name="eogonek" unicode="&#x119;" horiz-adv-x="614" 
d="M307 555c191 0 303 -130 291 -332h-356c16 -43 48 -65 91 -65c38 0 77 17 111 49l117 -115c-34 -37 -114 -124 -114 -171c0 -10 6 -15 14 -15c13 0 25 11 36 30l55 -64c-28 -51 -70 -76 -119 -76c-42 0 -96 19 -96 88c0 42 21 84 48 121c-23 -8 -48 -13 -72 -13
c-187 0 -298 110 -298 279c0 173 116 284 292 284zM309 405c-38 0 -63 -32 -72 -78h136c3 45 -25 78 -64 78z" />
    <glyph glyph-name="f" unicode="f" horiz-adv-x="426" 
d="M371 578c-32 1 -52 -17 -52 -46v-15h106v-142h-106v-375h-224v375h-75v142h75v49c0 114 89 187 227 186c62 0 133 -15 179 -39l-75 -154c-17 12 -39 19 -55 19z" />
    <glyph glyph-name="g" unicode="g" horiz-adv-x="654" 
d="M601 547v-502c0 -152 -125 -249 -306 -249c-105 0 -201 33 -258 71l71 151c48 -30 114 -48 167 -48c66 0 102 27 102 69v52c-33 -37 -80 -58 -137 -58c-129 0 -225 103 -225 264c0 157 92 258 221 258c59 0 107 -21 141 -59v51h224zM301 193c46 0 76 39 76 98
c0 60 -30 99 -76 99s-76 -39 -76 -99c0 -59 30 -98 76 -98z" />
    <glyph glyph-name="gbreve" unicode="&#x11f;" horiz-adv-x="654" 
d="M327 595c-107 0 -179 68 -184 174h135c3 -30 22 -50 49 -50s46 20 49 50h135c-5 -106 -77 -174 -184 -174zM601 547v-502c0 -152 -125 -249 -306 -249c-105 0 -201 33 -258 71l71 151c48 -30 114 -48 167 -48c66 0 102 27 102 69v52c-33 -37 -80 -58 -137 -58
c-129 0 -225 103 -225 264c0 157 92 258 221 258c59 0 107 -21 141 -59v51h224zM301 193c46 0 76 39 76 98c0 60 -30 99 -76 99s-76 -39 -76 -99c0 -59 30 -98 76 -98z" />
    <glyph glyph-name="gcommaaccent" unicode="&#x123;" horiz-adv-x="654" 
d="M320 580c-54 0 -102 35 -102 101c0 31 11 57 27 80l87 126h104l-52 -127c27 -18 39 -47 39 -78c0 -60 -43 -102 -103 -102zM601 547v-502c0 -152 -125 -249 -306 -249c-105 0 -201 33 -258 71l71 151c48 -30 114 -48 167 -48c66 0 102 27 102 69v52
c-33 -37 -80 -58 -137 -58c-129 0 -225 103 -225 264c0 157 92 258 221 258c59 0 107 -21 141 -59v51h224zM301 193c46 0 76 39 76 98c0 60 -30 99 -76 99s-76 -39 -76 -99c0 -59 30 -98 76 -98z" />
    <glyph glyph-name="h" unicode="h" horiz-adv-x="687" 
d="M451 557c115 0 196 -82 196 -208v-349h-225v284c0 46 -26 75 -65 75c-44 0 -72 -35 -72 -88v-271h-225v742h225v-273c37 56 94 88 166 88z" />
    <glyph glyph-name="hbar" unicode="&#x127;" horiz-adv-x="677" 
d="M451 557c115 0 196 -82 196 -208v-349h-225v284c0 46 -26 75 -65 75c-44 0 -72 -35 -72 -88v-271h-225v563h-76v119h76v60h225v-60h97v-119h-97v-94c37 56 94 88 166 88z" />
    <glyph glyph-name="i" unicode="i" horiz-adv-x="335" 
d="M168 817c67 0 114 -47 114 -114s-47 -114 -114 -114s-114 47 -114 114s47 114 114 114zM280 0h-225v547h225v-547z" />
    <glyph glyph-name="dotlessi" unicode="&#x131;" horiz-adv-x="335" 
d="M280 0h-225v547h225v-547z" />
    <glyph glyph-name="iacute" unicode="&#xed;" horiz-adv-x="335" 
d="M360 720l-137 -129h-160l107 189zM280 0h-225v547h225v-547z" />
    <glyph glyph-name="icircumflex" unicode="&#xee;" horiz-adv-x="335" 
d="M373 607h-150l-55 82l-55 -82h-150l121 162h168zM280 0h-225v547h225v-547z" />
    <glyph glyph-name="idieresis" unicode="&#xef;" horiz-adv-x="335" 
d="M64 790c54 0 91 -38 91 -92c0 -53 -37 -91 -91 -91s-91 38 -91 91c0 54 37 92 91 92zM272 790c54 0 91 -38 91 -92c0 -53 -37 -91 -91 -91s-91 38 -91 91c0 54 37 92 91 92zM280 0h-225v547h225v-547z" />
    <glyph glyph-name="igrave" unicode="&#xec;" horiz-adv-x="335" 
d="M280 591h-160l-137 129l190 60zM280 0h-225v547h225v-547z" />
    <glyph glyph-name="ij" unicode="&#x133;" horiz-adv-x="683" 
d="M168 817c67 0 114 -47 114 -114s-47 -114 -114 -114s-114 47 -114 114s47 114 114 114zM507 817c73 0 123 -47 123 -114s-50 -114 -123 -114c-72 0 -123 47 -123 114s51 114 123 114zM280 0h-225v547h225v-547zM620 547v-564c0 -115 -85 -187 -217 -186
c-60 0 -114 12 -157 34l50 154c19 -9 37 -14 55 -14c28 -1 44 15 44 46v530h225z" />
    <glyph glyph-name="imacron" unicode="&#x12b;" horiz-adv-x="335" 
d="M318 624h-300v148h300v-148zM280 0h-225v547h225v-547z" />
    <glyph glyph-name="iogonek" unicode="&#x12f;" horiz-adv-x="311" 
d="M156 817c67 0 114 -47 114 -114s-47 -114 -114 -114s-114 47 -114 114s47 114 114 114zM268 0h-56c-22 -33 -38 -63 -38 -79c0 -10 6 -15 14 -15c13 0 26 11 37 30l55 -64c-28 -51 -71 -76 -120 -76c-42 0 -96 19 -96 88c0 41 19 80 43 116h-64v547h225v-547z" />
    <glyph glyph-name="itilde" unicode="&#x129;" horiz-adv-x="335" 
d="M91 797c62 0 89 -40 112 -40c17 0 24 12 24 37h135c0 -124 -37 -182 -116 -182c-63 0 -89 40 -113 40c-16 0 -23 -12 -23 -38h-136c0 125 38 183 117 183zM280 0h-225v547h225v-547z" />
    <glyph glyph-name="j" unicode="j" horiz-adv-x="348" 
d="M172 817c73 0 123 -47 123 -114s-50 -114 -123 -114c-72 0 -123 47 -123 114s51 114 123 114zM285 547v-564c0 -115 -85 -187 -217 -186c-60 0 -114 12 -157 34l50 154c19 -9 37 -14 55 -14c28 -1 44 15 44 46v530h225z" />
    <glyph glyph-name="dotlessj" unicode="&#x237;" horiz-adv-x="338" 
d="M285 547v-564c0 -115 -85 -187 -217 -186c-60 0 -114 12 -157 34l50 154c19 -9 37 -14 55 -14c28 -1 44 15 44 46v530h225z" />
    <glyph glyph-name="jcircumflex" unicode="&#x135;" horiz-adv-x="338" 
d="M369 607h-150l-55 82l-55 -82h-150l121 162h168zM285 547v-564c0 -115 -85 -187 -217 -186c-60 0 -114 12 -157 34l50 154c19 -9 37 -14 55 -14c28 -1 44 15 44 46v530h225z" />
    <glyph glyph-name="k" unicode="k" horiz-adv-x="662" 
d="M467 336l196 -336h-267l-84 172l-27 -28v-144h-225v742h225v-337l127 142h254z" />
    <glyph glyph-name="kcedilla" unicode="&#x137;" horiz-adv-x="662" 
d="M467 336l196 -336h-267l-84 172l-27 -28v-144h-60l-27 -51c40 -14 66 -47 66 -83c0 -69 -55 -113 -141 -113c-30 0 -70 13 -101 34l40 90c10 -12 26 -20 41 -20c23 0 38 13 38 33c0 21 -17 34 -43 34c-9 0 -24 -2 -37 -5l42 81h-43v742h225v-337l127 142h254z" />
    <glyph glyph-name="kgreenlandic" unicode="&#x138;" horiz-adv-x="655" 
d="M460 336l196 -336h-267l-84 172l-25 -26v-146h-225v547h225v-140l125 140h254z" />
    <glyph glyph-name="l" unicode="l" horiz-adv-x="345" 
d="M285 0h-225v742h225v-742z" />
    <glyph glyph-name="lacute" unicode="&#x13a;" horiz-adv-x="345" 
d="M365 915l-137 -129h-160l107 189zM285 0h-225v742h225v-742z" />
    <glyph glyph-name="lcaron" unicode="&#x13e;" horiz-adv-x="485" 
d="M60 742h225v-742h-225v742zM411 669c54 0 102 -35 102 -101c0 -31 -11 -57 -27 -80l-87 -126h-104l52 127c-27 18 -39 47 -39 78c0 60 43 102 103 102z" />
    <glyph glyph-name="lcommaaccent" unicode="&#x13c;" horiz-adv-x="345" 
d="M285 742v-742h-225v742h225zM180 -33c54 0 102 -35 102 -101c0 -31 -11 -57 -27 -80l-87 -126h-104l52 127c-27 18 -39 47 -39 78c0 60 43 102 103 102z" />
    <glyph glyph-name="ldot" unicode="&#x140;" horiz-adv-x="447" 
d="M386 417c60 0 102 -42 102 -103c0 -60 -42 -102 -102 -102c-53 0 -92 32 -101 80v-292h-225v742h225v-406c9 49 48 81 101 81z" />
    <glyph glyph-name="lslash" unicode="&#x142;" horiz-adv-x="373" 
d="M309 381v-381h-225v316l-91 -26l-38 134l129 37v281h225v-216l71 21l38 -135z" />
    <glyph glyph-name="m" unicode="m" horiz-adv-x="1032" 
d="M799 557c113 0 193 -82 193 -208v-349h-225v284c0 46 -25 75 -62 75c-42 0 -69 -35 -69 -88v-271h-225v284c0 46 -25 75 -62 75c-42 0 -69 -35 -69 -88v-271h-225v547h225v-77c37 55 92 87 163 87c83 0 148 -44 177 -117c35 74 97 117 179 117z" />
    <glyph glyph-name="n" unicode="n" horiz-adv-x="682" 
d="M446 557c115 0 196 -82 196 -208v-349h-225v284c0 46 -26 75 -65 75c-44 0 -72 -35 -72 -88v-271h-225v547h225v-78c37 56 94 88 166 88z" />
    <glyph glyph-name="nacute" unicode="&#x144;" horiz-adv-x="682" 
d="M415 591h-160l107 189l190 -60zM446 557c115 0 196 -82 196 -208v-349h-225v284c0 46 -26 75 -65 75c-44 0 -72 -35 -72 -88v-271h-225v547h225v-78c37 56 94 88 166 88z" />
    <glyph glyph-name="ncaron" unicode="&#x148;" horiz-adv-x="682" 
d="M262 591l-133 178h165l60 -90l60 90h165l-133 -178h-184zM446 557c115 0 196 -82 196 -208v-349h-225v284c0 46 -26 75 -65 75c-44 0 -72 -35 -72 -88v-271h-225v547h225v-78c37 56 94 88 166 88z" />
    <glyph glyph-name="ncommaaccent" unicode="&#x146;" horiz-adv-x="682" 
d="M446 557c115 0 196 -82 196 -208v-349h-225v284c0 46 -26 75 -65 75c-44 0 -72 -35 -72 -88v-271h-225v547h225v-78c37 56 94 88 166 88zM354 -33c54 0 102 -35 102 -101c0 -31 -11 -57 -27 -80l-87 -126h-104l52 127c-27 18 -39 47 -39 78c0 60 43 102 103 102z" />
    <glyph glyph-name="ntilde" unicode="&#xf1;" horiz-adv-x="682" 
d="M325 652c-16 0 -23 -12 -23 -38h-136c0 125 38 183 117 183c62 0 89 -40 112 -40c17 0 24 12 24 37h135c0 -124 -37 -182 -116 -182c-63 0 -89 40 -113 40zM446 557c115 0 196 -82 196 -208v-349h-225v284c0 46 -26 75 -65 75c-44 0 -72 -35 -72 -88v-271h-225v547h225
v-78c37 56 94 88 166 88z" />
    <glyph glyph-name="o" unicode="o" horiz-adv-x="648" 
d="M324 555c188 0 309 -110 309 -281s-121 -282 -309 -282s-309 111 -309 282s121 281 309 281zM324 377c-50 0 -82 -42 -82 -106s32 -106 82 -106s82 42 82 106s-32 106 -82 106z" />
    <glyph glyph-name="oacute" unicode="&#xf3;" horiz-adv-x="648" 
d="M516 720l-137 -129h-160l107 189zM324 555c188 0 309 -110 309 -281s-121 -282 -309 -282s-309 111 -309 282s121 281 309 281zM324 377c-50 0 -82 -42 -82 -106s32 -106 82 -106s82 42 82 106s-32 106 -82 106z" />
    <glyph glyph-name="ocircumflex" unicode="&#xf4;" horiz-adv-x="648" 
d="M529 607h-150l-55 82l-55 -82h-150l121 162h168zM324 555c188 0 309 -110 309 -281s-121 -282 -309 -282s-309 111 -309 282s121 281 309 281zM324 377c-50 0 -82 -42 -82 -106s32 -106 82 -106s82 42 82 106s-32 106 -82 106z" />
    <glyph glyph-name="odieresis" unicode="&#xf6;" horiz-adv-x="648" 
d="M220 790c54 0 91 -38 91 -92c0 -53 -37 -91 -91 -91s-91 38 -91 91c0 54 37 92 91 92zM428 790c54 0 91 -38 91 -92c0 -53 -37 -91 -91 -91s-91 38 -91 91c0 54 37 92 91 92zM324 555c188 0 309 -110 309 -281s-121 -282 -309 -282s-309 111 -309 282s121 281 309 281z
M324 377c-50 0 -82 -42 -82 -106s32 -106 82 -106s82 42 82 106s-32 106 -82 106z" />
    <glyph glyph-name="ograve" unicode="&#xf2;" horiz-adv-x="648" 
d="M436 591h-160l-137 129l190 60zM324 555c188 0 309 -110 309 -281s-121 -282 -309 -282s-309 111 -309 282s121 281 309 281zM324 377c-50 0 -82 -42 -82 -106s32 -106 82 -106s82 42 82 106s-32 106 -82 106z" />
    <glyph glyph-name="ohungarumlaut" unicode="&#x151;" horiz-adv-x="648" 
d="M373 727l-89 -136h-160l87 189zM594 727l-89 -136h-160l87 189zM324 555c188 0 309 -110 309 -281s-121 -282 -309 -282s-309 111 -309 282s121 281 309 281zM324 377c-50 0 -82 -42 -82 -106s32 -106 82 -106s82 42 82 106s-32 106 -82 106z" />
    <glyph glyph-name="omacron" unicode="&#x14d;" horiz-adv-x="648" 
d="M474 624h-300v148h300v-148zM324 555c188 0 309 -110 309 -281s-121 -282 -309 -282s-309 111 -309 282s121 281 309 281zM324 377c-50 0 -82 -42 -82 -106s32 -106 82 -106s82 42 82 106s-32 106 -82 106z" />
    <glyph glyph-name="oslash" unicode="&#xf8;" horiz-adv-x="648" 
d="M501 677l-47 -143c112 -39 179 -133 179 -260c0 -171 -121 -282 -309 -282c-16 0 -31 1 -46 2l-44 -133h-88l50 151c-113 40 -181 134 -181 262c0 171 121 281 309 281c17 0 33 -1 48 -3l41 125h88zM227 271c0 -36 9 -67 24 -88l70 213c-57 -2 -94 -50 -94 -125zM397 359
l-70 -213c57 2 94 50 94 125c0 36 -9 66 -24 88z" />
    <glyph glyph-name="otilde" unicode="&#xf5;" horiz-adv-x="648" 
d="M247 797c62 0 89 -40 112 -40c17 0 24 12 24 37h135c0 -124 -37 -182 -116 -182c-63 0 -89 40 -113 40c-16 0 -23 -12 -23 -38h-136c0 125 38 183 117 183zM324 555c188 0 309 -110 309 -281s-121 -282 -309 -282s-309 111 -309 282s121 281 309 281zM324 377
c-50 0 -82 -42 -82 -106s32 -106 82 -106s82 42 82 106s-32 106 -82 106z" />
    <glyph glyph-name="oe" unicode="&#x153;" horiz-adv-x="999" 
d="M690 555c192 0 305 -130 293 -332h-360c16 -43 49 -65 93 -65c39 0 78 17 113 49l117 -115c-59 -64 -143 -100 -250 -100c-82 0 -143 26 -184 71c-44 -45 -106 -71 -188 -71c-188 0 -309 111 -309 282s121 281 309 281c82 0 146 -26 189 -72c41 46 100 72 177 72z
M618 327h140c3 45 -26 78 -66 78s-65 -32 -74 -78zM324 165c50 0 82 42 82 106s-32 106 -82 106s-82 -42 -82 -106s32 -106 82 -106z" />
    <glyph glyph-name="p" unicode="p" 
d="M424 555c152 0 251 -112 251 -285c0 -169 -96 -278 -245 -278c-59 0 -109 23 -145 64v-250h-225v741h225v-55c35 41 83 63 139 63zM366 170c50 0 82 42 82 106s-32 106 -82 106c-49 0 -81 -42 -81 -106s32 -106 81 -106z" />
    <glyph glyph-name="thorn" unicode="&#xfe;" 
d="M424 555c152 0 251 -112 251 -285c0 -169 -96 -278 -245 -278c-59 0 -109 23 -145 64v-250h-225v936h225v-250c35 41 83 63 139 63zM366 170c50 0 82 42 82 106s-32 106 -82 106c-49 0 -81 -42 -81 -106s32 -106 81 -106z" />
    <glyph glyph-name="q" unicode="q" 
d="M630 547v-741h-225v249c-35 -41 -83 -63 -139 -63c-152 0 -251 112 -251 285c0 169 96 278 245 278c59 0 109 -23 145 -64v56h225zM324 165c49 0 81 42 81 106s-32 106 -81 106c-50 0 -82 -42 -82 -106s32 -106 82 -106z" />
    <glyph glyph-name="r" unicode="r" horiz-adv-x="457" 
d="M280 547v-80c38 57 96 90 167 90v-203c-101 15 -167 -21 -167 -93v-261h-225v547h225z" />
    <glyph glyph-name="racute" unicode="&#x155;" horiz-adv-x="457" 
d="M300 591h-160l107 189l190 -60zM280 547v-80c38 57 96 90 167 90v-203c-101 15 -167 -21 -167 -93v-261h-225v547h225z" />
    <glyph glyph-name="rcaron" unicode="&#x159;" horiz-adv-x="457" 
d="M147 591l-133 178h165l60 -90l60 90h165l-133 -178h-184zM280 547v-80c38 57 96 90 167 90v-203c-101 15 -167 -21 -167 -93v-261h-225v547h225z" />
    <glyph glyph-name="rcommaaccent" unicode="&#x157;" horiz-adv-x="457" 
d="M280 547v-80c38 57 96 90 167 90v-203c-101 15 -167 -21 -167 -93v-261h-225v547h225zM168 -33c54 0 102 -35 102 -101c0 -31 -11 -57 -27 -80l-87 -126h-104l52 127c-27 18 -39 47 -39 78c0 60 43 102 103 102z" />
    <glyph glyph-name="s" unicode="s" horiz-adv-x="552" 
d="M279 557c87 0 172 -23 254 -69l-74 -139c-81 40 -143 60 -185 60c-19 0 -31 -7 -31 -18c0 -51 284 -31 284 -215c0 -113 -97 -186 -248 -186c-101 0 -191 26 -267 78l68 140c73 -45 141 -68 202 -68c21 0 34 6 34 16c0 48 -278 27 -278 212c0 115 95 189 241 189z" />
    <glyph glyph-name="sacute" unicode="&#x15b;" horiz-adv-x="552" 
d="M481 720l-137 -129h-160l107 189zM279 557c87 0 172 -23 254 -69l-74 -139c-81 40 -143 60 -185 60c-19 0 -31 -7 -31 -18c0 -51 284 -31 284 -215c0 -113 -97 -186 -248 -186c-101 0 -191 26 -267 78l68 140c73 -45 141 -68 202 -68c21 0 34 6 34 16
c0 48 -278 27 -278 212c0 115 95 189 241 189z" />
    <glyph glyph-name="scaron" unicode="&#x161;" horiz-adv-x="552" 
d="M58 769h165l60 -90l60 90h165l-133 -178h-184zM279 557c87 0 172 -23 254 -69l-74 -139c-81 40 -143 60 -185 60c-19 0 -31 -7 -31 -18c0 -51 284 -31 284 -215c0 -113 -97 -186 -248 -186c-101 0 -191 26 -267 78l68 140c73 -45 141 -68 202 -68c21 0 34 6 34 16
c0 48 -278 27 -278 212c0 115 95 189 241 189z" />
    <glyph glyph-name="scedilla" unicode="&#x15f;" horiz-adv-x="552" 
d="M243 391c0 -51 284 -31 284 -215c0 -92 -65 -158 -171 -179l-26 -48c40 -14 66 -47 66 -83c0 -69 -55 -113 -141 -113c-30 0 -70 13 -101 34l40 90c10 -12 26 -20 41 -20c23 0 38 13 38 33c0 21 -17 34 -43 34c-9 0 -24 -2 -37 -5l38 73c-82 7 -155 32 -219 76l68 140
c73 -45 141 -68 202 -68c21 0 34 6 34 16c0 48 -278 27 -278 212c0 115 95 189 241 189c87 0 172 -23 254 -69l-74 -139c-81 40 -143 60 -185 60c-19 0 -31 -7 -31 -18z" />
    <glyph glyph-name="scommaaccent" unicode="&#x219;" horiz-adv-x="552" 
d="M243 391c0 -51 284 -31 284 -215c0 -113 -97 -186 -248 -186c-101 0 -191 26 -267 78l68 140c73 -45 141 -68 202 -68c21 0 34 6 34 16c0 48 -278 27 -278 212c0 115 95 189 241 189c87 0 172 -23 254 -69l-74 -139c-81 40 -143 60 -185 60c-19 0 -31 -7 -31 -18z
M282 -33c54 0 102 -35 102 -101c0 -31 -11 -57 -27 -80l-87 -126h-104l52 127c-27 18 -39 47 -39 78c0 60 43 102 103 102z" />
    <glyph glyph-name="germandbls" unicode="&#xdf;" horiz-adv-x="670" 
d="M325 752c171 0 281 -81 281 -205c0 -62 -31 -125 -78 -162c74 -26 122 -92 122 -168c0 -132 -114 -217 -291 -217h-47v158h23c67 0 97 20 97 65c0 42 -30 61 -97 61h-23v157c53 0 76 22 76 72s-18 72 -59 72c-44 0 -64 -22 -64 -72v-513h-225v496c0 156 112 256 285 256z
" />
    <glyph glyph-name="t" unicode="t" horiz-adv-x="460" 
d="M407 178l38 -154c-36 -21 -98 -34 -156 -34c-125 -1 -206 72 -206 186v199h-75v142h75v153h224v-153h128v-142h-128v-165c0 -29 17 -47 44 -46c13 0 35 6 56 14z" />
    <glyph glyph-name="tcaron" unicode="&#x165;" horiz-adv-x="470" 
d="M449 879c54 0 102 -35 102 -101c0 -31 -11 -57 -27 -80l-87 -126h-104l52 127c-27 18 -39 47 -39 78c0 60 43 102 103 102zM351 164c13 0 35 6 56 14l38 -154c-36 -21 -98 -34 -156 -34c-125 -1 -206 72 -206 186v199h-75v142h75v153h224v-153h128v-142h-128v-165
c0 -29 17 -47 44 -46z" />
    <glyph glyph-name="tcedilla" unicode="&#x163;" horiz-adv-x="460" 
d="M352 -5l-25 -46c40 -14 66 -47 66 -83c0 -69 -55 -113 -141 -113c-30 0 -70 13 -101 34l40 90c10 -12 26 -20 41 -20c23 0 38 13 38 33c0 21 -17 34 -43 34c-9 0 -24 -2 -37 -5l40 77c-91 19 -147 85 -147 180v199h-75v142h75v153h224v-153h128v-142h-128v-165
c0 -29 17 -47 44 -46c13 0 35 6 56 14l38 -154c-23 -13 -57 -24 -93 -29z" />
    <glyph glyph-name="tcommaaccent" unicode="&#x21b;" horiz-adv-x="460" 
d="M289 -10c-125 -1 -206 72 -206 186v199h-75v142h75v153h224v-153h128v-142h-128v-165c0 -29 17 -47 44 -46c13 0 35 6 56 14l38 -154c-36 -21 -98 -34 -156 -34zM279 -33c54 0 102 -35 102 -101c0 -31 -11 -57 -27 -80l-87 -126h-104l52 127c-27 18 -39 47 -39 78
c0 60 43 102 103 102z" />
    <glyph glyph-name="u" unicode="u" horiz-adv-x="672" 
d="M617 547v-547h-225v76c-36 -55 -91 -86 -161 -86c-112 0 -191 82 -191 208v349h225v-284c0 -46 24 -75 60 -75c41 0 67 35 67 88v271h225z" />
    <glyph glyph-name="uacute" unicode="&#xfa;" horiz-adv-x="672" 
d="M385 591h-160l107 189l190 -60zM617 547v-547h-225v76c-36 -55 -91 -86 -161 -86c-112 0 -191 82 -191 208v349h225v-284c0 -46 24 -75 60 -75c41 0 67 35 67 88v271h225z" />
    <glyph glyph-name="ucircumflex" unicode="&#xfb;" horiz-adv-x="672" 
d="M275 607h-150l121 162h168l121 -162h-150l-55 82zM617 547v-547h-225v76c-36 -55 -91 -86 -161 -86c-112 0 -191 82 -191 208v349h225v-284c0 -46 24 -75 60 -75c41 0 67 35 67 88v271h225z" />
    <glyph glyph-name="udieresis" unicode="&#xfc;" horiz-adv-x="672" 
d="M226 607c-54 0 -91 38 -91 91c0 54 37 92 91 92s91 -38 91 -92c0 -53 -37 -91 -91 -91zM434 607c-54 0 -91 38 -91 91c0 54 37 92 91 92s91 -38 91 -92c0 -53 -37 -91 -91 -91zM617 547v-547h-225v76c-36 -55 -91 -86 -161 -86c-112 0 -191 82 -191 208v349h225v-284
c0 -46 24 -75 60 -75c41 0 67 35 67 88v271h225z" />
    <glyph glyph-name="ugrave" unicode="&#xf9;" horiz-adv-x="672" 
d="M282 591l-137 129l190 60l107 -189h-160zM617 547v-547h-225v76c-36 -55 -91 -86 -161 -86c-112 0 -191 82 -191 208v349h225v-284c0 -46 24 -75 60 -75c41 0 67 35 67 88v271h225z" />
    <glyph glyph-name="uhungarumlaut" unicode="&#x171;" horiz-adv-x="672" 
d="M290 591h-160l87 189l162 -53zM351 591l87 189l162 -53l-89 -136h-160zM617 547v-547h-225v76c-36 -55 -91 -86 -161 -86c-112 0 -191 82 -191 208v349h225v-284c0 -46 24 -75 60 -75c41 0 67 35 67 88v271h225z" />
    <glyph glyph-name="umacron" unicode="&#x16b;" horiz-adv-x="672" 
d="M480 624h-300v148h300v-148zM617 547v-547h-225v76c-36 -55 -91 -86 -161 -86c-112 0 -191 82 -191 208v349h225v-284c0 -46 24 -75 60 -75c41 0 67 35 67 88v271h225z" />
    <glyph glyph-name="uogonek" unicode="&#x173;" horiz-adv-x="670" 
d="M627 0h-58c-22 -33 -38 -63 -38 -79c0 -10 6 -15 14 -15c13 0 26 11 37 30l55 -64c-28 -51 -71 -76 -120 -76c-42 0 -96 19 -96 88c0 41 19 80 43 116h-62v78c-37 -56 -94 -88 -166 -88c-115 0 -196 82 -196 208v349h225v-284c0 -46 26 -75 65 -75c44 0 72 35 72 88v271
h225v-547z" />
    <glyph glyph-name="uring" unicode="&#x16f;" horiz-adv-x="672" 
d="M330 579c-69 0 -124 55 -124 124s55 124 124 124s124 -55 124 -124s-55 -124 -124 -124zM330 742c-22 0 -39 -17 -39 -39s17 -39 39 -39s39 17 39 39s-17 39 -39 39zM617 547v-547h-225v76c-36 -55 -91 -86 -161 -86c-112 0 -191 82 -191 208v349h225v-284
c0 -46 24 -75 60 -75c41 0 67 35 67 88v271h225z" />
    <glyph glyph-name="v" unicode="v" horiz-adv-x="612" 
d="M420 0h-230l-200 547h231l87 -343l89 343h225z" />
    <glyph glyph-name="w" unicode="w" horiz-adv-x="977" 
d="M787 0h-220l-78 288l-81 -288h-220l-198 547h228l87 -326l84 326h208l87 -326l86 326h217z" />
    <glyph glyph-name="wacute" unicode="&#x1e83;" horiz-adv-x="977" 
d="M681 720l-137 -129h-160l107 189zM787 0h-220l-78 288l-81 -288h-220l-198 547h228l87 -326l84 326h208l87 -326l86 326h217z" />
    <glyph glyph-name="wcircumflex" unicode="&#x175;" horiz-adv-x="977" 
d="M694 607h-150l-55 82l-55 -82h-150l121 162h168zM787 0h-220l-78 288l-81 -288h-220l-198 547h228l87 -326l84 326h208l87 -326l86 326h217z" />
    <glyph glyph-name="wdieresis" unicode="&#x1e85;" horiz-adv-x="977" 
d="M385 790c54 0 91 -38 91 -92c0 -53 -37 -91 -91 -91s-91 38 -91 91c0 54 37 92 91 92zM593 790c54 0 91 -38 91 -92c0 -53 -37 -91 -91 -91s-91 38 -91 91c0 54 37 92 91 92zM787 0h-220l-78 288l-81 -288h-220l-198 547h228l87 -326l84 326h208l87 -326l86 326h217z" />
    <glyph glyph-name="wgrave" unicode="&#x1e81;" horiz-adv-x="977" 
d="M601 591h-160l-137 129l190 60zM787 0h-220l-78 288l-81 -288h-220l-198 547h228l87 -326l84 326h208l87 -326l86 326h217z" />
    <glyph glyph-name="x" unicode="x" horiz-adv-x="654" 
d="M327 419l74 128h246l-170 -266l182 -281h-259l-73 142l-85 -142h-247l181 280l-170 267h258z" />
    <glyph glyph-name="y" unicode="y" horiz-adv-x="624" 
d="M634 547l-225 -585c-46 -114 -123 -166 -240 -166c-72 0 -130 20 -189 64l94 148c24 -22 46 -32 73 -32c26 0 43 9 54 28l8 13l-227 530h231l108 -312l89 312h224z" />
    <glyph glyph-name="yacute" unicode="&#xfd;" horiz-adv-x="624" 
d="M504 720l-137 -129h-160l107 189zM634 547l-225 -585c-46 -114 -123 -166 -240 -166c-72 0 -130 20 -189 64l94 148c24 -22 46 -32 73 -32c26 0 43 9 54 28l8 13l-227 530h231l108 -312l89 312h224z" />
    <glyph glyph-name="ycircumflex" unicode="&#x177;" horiz-adv-x="624" 
d="M517 607h-150l-55 82l-55 -82h-150l121 162h168zM634 547l-225 -585c-46 -114 -123 -166 -240 -166c-72 0 -130 20 -189 64l94 148c24 -22 46 -32 73 -32c26 0 43 9 54 28l8 13l-227 530h231l108 -312l89 312h224z" />
    <glyph glyph-name="ydieresis" unicode="&#xff;" horiz-adv-x="624" 
d="M208 790c54 0 91 -38 91 -92c0 -53 -37 -91 -91 -91s-91 38 -91 91c0 54 37 92 91 92zM416 790c54 0 91 -38 91 -92c0 -53 -37 -91 -91 -91s-91 38 -91 91c0 54 37 92 91 92zM634 547l-225 -585c-46 -114 -123 -166 -240 -166c-72 0 -130 20 -189 64l94 148
c24 -22 46 -32 73 -32c26 0 43 9 54 28l8 13l-227 530h231l108 -312l89 312h224z" />
    <glyph glyph-name="ygrave" unicode="&#x1ef3;" horiz-adv-x="624" 
d="M424 591h-160l-137 129l190 60zM634 547l-225 -585c-46 -114 -123 -166 -240 -166c-72 0 -130 20 -189 64l94 148c24 -22 46 -32 73 -32c26 0 43 9 54 28l8 13l-227 530h231l108 -312l89 312h224z" />
    <glyph glyph-name="z" unicode="z" horiz-adv-x="568" 
d="M537 416l-228 -248h238v-168h-522v131l228 248h-218v168h502v-131z" />
    <glyph glyph-name="zacute" unicode="&#x17a;" horiz-adv-x="568" 
d="M476 720l-137 -129h-160l107 189zM537 416l-228 -248h238v-168h-522v131l228 248h-218v168h502v-131z" />
    <glyph glyph-name="zcaron" unicode="&#x17e;" horiz-adv-x="568" 
d="M53 769h165l60 -90l60 90h165l-133 -178h-184zM537 416l-228 -248h238v-168h-522v131l228 248h-218v168h502v-131z" />
    <glyph glyph-name="zdotaccent" unicode="&#x17c;" horiz-adv-x="568" 
d="M284 817c67 0 114 -47 114 -114s-47 -114 -114 -114s-114 47 -114 114s47 114 114 114zM537 416l-228 -248h238v-168h-522v131l228 248h-218v168h502v-131z" />
    <glyph glyph-name="ordfeminine" unicode="&#xaa;" horiz-adv-x="400" 
d="M209 794c103 0 165 -44 164 -123v-213h-149v33c-20 -25 -52 -40 -96 -40c-74 0 -117 42 -117 105c0 66 47 101 136 102h77c-3 18 -20 28 -51 28c-25 0 -65 -7 -105 -19l-34 97c61 19 124 30 175 30zM181 544c16 0 32 7 43 20v27h-45c-16 0 -25 -8 -25 -23s9 -24 27 -24z
" />
    <glyph glyph-name="ordmasculine" unicode="&#xba;" horiz-adv-x="419" 
d="M209 793c121 0 198 -66 198 -170c0 -103 -77 -170 -198 -170c-120 0 -197 67 -197 170c0 104 77 170 197 170zM209 678c-27 0 -44 -22 -44 -57c0 -34 17 -56 44 -56s44 22 44 56c0 35 -17 57 -44 57z" />
    <glyph glyph-name="Delta" unicode="&#x394;" horiz-adv-x="799" 
d="M809 0h-819l296 701h238zM504 166l-106 304l-110 -304h216z" />
    <glyph glyph-name="Omega" unicode="&#x2126;" horiz-adv-x="833" 
d="M416 713c209 0 361 -136 361 -322c0 -70 -39 -159 -93 -211h144v-180h-365v166c63 48 109 135 109 205c0 89 -66 153 -156 153c-89 0 -155 -64 -155 -153c0 -70 46 -157 109 -205v-166h-365v180h145c-54 51 -94 140 -94 211c0 186 152 322 360 322z" />
    <glyph glyph-name="mu" unicode="&#xb5;" horiz-adv-x="692" 
d="M637 547v-547h-225v76c-30 -45 -73 -75 -127 -83v-187h-225v741h225v-284c0 -46 24 -75 60 -75c41 0 67 35 67 88v271h225z" />
    <glyph glyph-name="pi" unicode="&#x3c0;" horiz-adv-x="733" 
d="M614 391v-391h-185v391h-37l-40 -391h-185l40 391h-13c-25 0 -43 -17 -42 -41c0 -15 8 -41 18 -62l-154 -52c-22 46 -38 106 -38 152c-1 92 77 159 186 159h555l1 -156h-106z" />
    <glyph glyph-name="zero" unicode="0" horiz-adv-x="713" 
d="M357 708c206 0 321 -127 321 -357s-115 -358 -321 -358c-208 0 -322 128 -322 358s114 357 322 357zM357 540c-63 0 -84 -47 -84 -189s21 -190 84 -190c62 0 83 48 83 190s-21 189 -83 189z" />
    <glyph glyph-name="one" unicode="1" horiz-adv-x="435" 
d="M356 0h-232v518h-122v183h354v-701z" />
    <glyph glyph-name="two" unicode="2" horiz-adv-x="610" 
d="M323 711c144 0 253 -76 253 -190c0 -81 -58 -159 -136 -237l-106 -106h252v-178h-547v145l243 253c28 30 51 65 51 89s-16 37 -46 37c-53 0 -122 -35 -190 -90l-86 167c100 69 202 110 312 110z" />
    <glyph glyph-name="three" unicode="3" horiz-adv-x="575" 
d="M373 424l30 -7c88 -21 153 -89 153 -194c0 -137 -110 -233 -280 -233c-105 0 -215 37 -283 93l92 176c53 -65 111 -98 172 -98c48 0 72 20 72 61s-24 61 -72 61h-127v121l133 127h-233v168h494v-130z" />
    <glyph glyph-name="four" unicode="4" horiz-adv-x="664" 
d="M260 301h95v134h215v-134h89v-166h-89v-135h-215v135h-330v152l205 414h221z" />
    <glyph glyph-name="five" unicode="5" horiz-adv-x="611" 
d="M556 523h-277v-74h31c169 0 279 -82 279 -210c0 -151 -117 -249 -297 -249c-99 0 -212 37 -289 93l92 176c50 -65 107 -98 169 -98c50 0 75 21 75 62c0 38 -25 57 -75 57h-197v421h489v-178z" />
    <glyph glyph-name="six" unicode="6" horiz-adv-x="648" 
d="M378 711c86 0 181 -24 242 -62l-88 -162c-38 31 -85 46 -140 46c-90 0 -136 -39 -136 -117c30 29 77 52 145 52c137 0 227 -94 227 -231c0 -151 -110 -247 -275 -247c-198 0 -318 138 -318 353c0 223 135 368 343 368zM346 300c-46 0 -70 -21 -70 -63s23 -63 69 -63
c45 0 68 21 68 64c0 41 -22 62 -67 62z" />
    <glyph glyph-name="seven" unicode="7" horiz-adv-x="617" 
d="M608 546l-241 -546h-245l231 523h-120v-98h-204v276h579v-155z" />
    <glyph glyph-name="eight" unicode="8" horiz-adv-x="656" 
d="M327 711c162 0 266 -77 266 -196c0 -53 -29 -108 -74 -140c68 -34 112 -103 112 -176c0 -127 -119 -209 -303 -209s-303 81 -303 205c0 75 49 146 124 180c-52 36 -86 94 -86 147c0 115 104 189 264 189zM328 560c-47 0 -71 -19 -71 -57c0 -36 24 -54 71 -54s71 18 71 54
c0 38 -24 57 -71 57zM328 284c-56 0 -84 -22 -84 -65c0 -42 28 -63 84 -63s85 21 85 63c0 43 -29 65 -85 65z" />
    <glyph glyph-name="nine" unicode="9" horiz-adv-x="648" 
d="M270 -10c-86 0 -181 24 -242 62l88 162c38 -31 85 -46 140 -46c90 0 136 39 136 117c-30 -29 -77 -52 -145 -52c-137 0 -227 94 -227 231c0 151 110 247 275 247c198 0 318 -138 318 -353c0 -223 -135 -368 -343 -368zM302 401c46 0 70 21 70 63s-23 63 -69 63
c-45 0 -68 -21 -68 -64c0 -41 22 -62 67 -62z" />
    <glyph glyph-name="fraction" unicode="&#x2044;" horiz-adv-x="150" 
d="M-273 0l487 701h209l-487 -701h-209z" />
    <glyph glyph-name="onehalf" unicode="&#xbd;" horiz-adv-x="960" 
d="M80 280v302h-76v119h232v-421h-156zM83 0l487 701h209l-487 -701h-209zM777 427c92 0 162 -46 162 -115c0 -50 -37 -96 -87 -143l-58 -54h149v-115h-349v93l152 149c15 16 29 35 29 48c0 11 -8 16 -23 16c-32 0 -76 -21 -119 -54l-58 108c65 42 131 67 202 67z" />
    <glyph glyph-name="onequarter" unicode="&#xbc;" horiz-adv-x="938" 
d="M80 280v302h-76v119h232v-421h-156zM83 0l487 701h209l-487 -701h-209zM733 184v76h145v-76h55v-107h-55v-77h-145v77h-208v98l126 246h149l-116 -237h49z" />
    <glyph glyph-name="threequarters" unicode="&#xbe;" horiz-adv-x="996" 
d="M141 0l487 701h209l-487 -701h-209zM249 536l19 -5c52 -13 92 -54 92 -117c0 -82 -70 -141 -179 -141c-68 0 -139 23 -182 58l62 114c33 -41 69 -61 107 -61c26 0 39 9 39 30s-13 31 -39 31h-82v78l78 68h-142v108h318v-84zM791 184v76h145v-76h55v-107h-55v-77h-145v77
h-208v98l126 246h149l-116 -237h49z" />
    <glyph glyph-name="oneeighth" unicode="&#x215b;" horiz-adv-x="950" 
d="M80 280v302h-76v119h232v-421h-156zM83 0l487 701h209l-487 -701h-209zM737 427c104 0 171 -47 171 -119c0 -30 -18 -63 -44 -83c41 -21 68 -63 68 -105c0 -77 -76 -127 -194 -127s-194 50 -194 124c0 44 30 87 76 108c-31 22 -52 57 -52 88c0 69 67 114 169 114z
M738 330c-26 0 -39 -10 -39 -30c0 -18 13 -27 39 -27s39 9 39 27c0 20 -13 30 -39 30zM738 166c-31 0 -46 -11 -46 -33s15 -32 46 -32s47 10 47 32s-16 33 -47 33z" />
    <glyph glyph-name="threeeighths" unicode="&#x215c;" horiz-adv-x="1008" 
d="M141 0l487 701h209l-487 -701h-209zM249 536l19 -5c52 -13 92 -54 92 -117c0 -82 -70 -141 -179 -141c-68 0 -139 23 -182 58l62 114c33 -41 69 -61 107 -61c26 0 39 9 39 30s-13 31 -39 31h-82v78l78 68h-142v108h318v-84zM795 427c104 0 171 -47 171 -119
c0 -30 -18 -63 -44 -83c41 -21 68 -63 68 -105c0 -77 -76 -127 -194 -127s-194 50 -194 124c0 44 30 87 76 108c-31 22 -52 57 -52 88c0 69 67 114 169 114zM796 330c-26 0 -39 -10 -39 -30c0 -18 13 -27 39 -27s39 9 39 27c0 20 -13 30 -39 30zM796 166
c-31 0 -46 -11 -46 -33s15 -32 46 -32s47 10 47 32s-16 33 -47 33z" />
    <glyph glyph-name="fiveeighths" unicode="&#x215d;" horiz-adv-x="1020" 
d="M190 273c-64 0 -137 23 -186 57l61 113l-20 1v257h314v-115h-171v-33c1 -1 13 -2 14 -2c108 0 178 -49 178 -127c0 -91 -75 -151 -190 -151zM849 701l-487 -701h-209l487 701h209zM211 414c0 19 -13 28 -41 28l-103 1c31 -40 65 -59 104 -59c27 0 40 9 40 30zM934 225
c41 -21 68 -63 68 -105c0 -77 -76 -127 -194 -127s-194 50 -194 124c0 44 30 87 76 108c-31 22 -52 57 -52 88c0 69 67 114 169 114c104 0 171 -47 171 -119c0 -30 -18 -63 -44 -83zM808 330c-26 0 -39 -10 -39 -30c0 -18 13 -27 39 -27s39 9 39 27c0 20 -13 30 -39 30z
M808 101c31 0 47 10 47 32s-16 33 -47 33s-46 -11 -46 -33s15 -32 46 -32z" />
    <glyph glyph-name="seveneighths" unicode="&#x215e;" horiz-adv-x="995" 
d="M244 280h-165l141 306h-61v-58h-137v173h371v-100zM128 0l487 701h209l-487 -701h-209zM782 427c104 0 171 -47 171 -119c0 -30 -18 -63 -44 -83c41 -21 68 -63 68 -105c0 -77 -76 -127 -194 -127s-194 50 -194 124c0 44 30 87 76 108c-31 22 -52 57 -52 88
c0 69 67 114 169 114zM783 330c-26 0 -39 -10 -39 -30c0 -18 13 -27 39 -27s39 9 39 27c0 20 -13 30 -39 30zM783 166c-31 0 -46 -11 -46 -33s15 -32 46 -32s47 10 47 32s-16 33 -47 33z" />
    <glyph glyph-name="zero.dnom" horiz-adv-x="459" 
d="M230 425c124 0 204 -84 204 -214c0 -131 -80 -216 -204 -216s-205 85 -205 216c0 130 81 214 205 214zM230 307c-39 0 -64 -38 -64 -96c0 -59 25 -97 64 -97s64 38 64 97c0 58 -25 96 -64 96z" />
    <glyph glyph-name="one.dnom" horiz-adv-x="286" 
d="M80 0v302h-76v119h232v-421h-156z" />
    <glyph glyph-name="two.dnom" horiz-adv-x="394" 
d="M211 427c92 0 162 -46 162 -115c0 -50 -37 -96 -87 -143l-58 -54h149v-115h-349v93l152 149c15 16 29 35 29 48c0 11 -8 16 -23 16c-32 0 -76 -21 -119 -54l-58 108c65 42 131 67 202 67z" />
    <glyph glyph-name="three.dnom" horiz-adv-x="374" 
d="M249 256l19 -5c52 -13 92 -54 92 -117c0 -82 -70 -141 -179 -141c-68 0 -139 23 -182 58l62 114c33 -41 69 -61 107 -61c26 0 39 9 39 30s-13 31 -39 31h-82v78l78 68h-142v108h318v-84z" />
    <glyph glyph-name="four.dnom" horiz-adv-x="432" 
d="M227 184v76h145v-76h55v-107h-55v-77h-145v77h-208v98l126 246h149l-116 -237h49z" />
    <glyph glyph-name="five.dnom" horiz-adv-x="396" 
d="M202 271c108 0 178 -49 178 -127c0 -91 -75 -151 -190 -151c-64 0 -137 23 -186 57l61 113l-20 1v257h314v-115h-171v-33c1 -1 13 -2 14 -2zM171 104c27 0 40 9 40 30c0 19 -13 28 -41 28l-103 1c31 -40 65 -59 104 -59z" />
    <glyph glyph-name="six.dnom" horiz-adv-x="419" 
d="M245 427c55 0 117 -15 155 -38l-59 -105c-23 19 -52 28 -87 28c-52 0 -79 -17 -80 -54c19 13 47 24 87 24c86 0 143 -57 143 -139c0 -91 -70 -150 -176 -150c-126 0 -203 84 -203 213c0 134 87 221 220 221zM223 174c-24 0 -36 -9 -36 -31c0 -23 12 -30 36 -30
c25 0 36 9 36 31c0 20 -11 30 -36 30z" />
    <glyph glyph-name="seven.dnom" horiz-adv-x="401" 
d="M244 0h-165l141 306h-61v-58h-137v173h371v-100z" />
    <glyph glyph-name="eight.dnom" horiz-adv-x="424" 
d="M211 427c104 0 171 -47 171 -119c0 -30 -18 -63 -44 -83c41 -21 68 -63 68 -105c0 -77 -76 -127 -194 -127s-194 50 -194 124c0 44 30 87 76 108c-31 22 -52 57 -52 88c0 69 67 114 169 114zM212 330c-26 0 -39 -10 -39 -30c0 -18 13 -27 39 -27s39 9 39 27
c0 20 -13 30 -39 30zM212 166c-31 0 -46 -11 -46 -33s15 -32 46 -32s47 10 47 32s-16 33 -47 33z" />
    <glyph glyph-name="nine.dnom" horiz-adv-x="419" 
d="M174 -7c-56 0 -117 15 -155 39l59 104c23 -18 52 -27 87 -27c52 0 79 16 80 53c-19 -12 -47 -24 -87 -24c-86 0 -143 57 -143 140c0 91 70 149 176 149c126 0 203 -84 203 -213c0 -134 -87 -221 -220 -221zM196 247c24 0 36 8 36 30c0 24 -12 31 -36 31
c-25 0 -36 -9 -36 -31c0 -20 11 -30 36 -30z" />
    <glyph glyph-name="zero.numr" horiz-adv-x="459" 
d="M230 705c124 0 204 -84 204 -214c0 -131 -80 -216 -204 -216s-205 85 -205 216c0 130 81 214 205 214zM230 587c-39 0 -64 -38 -64 -96c0 -59 25 -97 64 -97s64 38 64 97c0 58 -25 96 -64 96z" />
    <glyph glyph-name="one.numr" horiz-adv-x="286" 
d="M80 280v302h-76v119h232v-421h-156z" />
    <glyph glyph-name="two.numr" horiz-adv-x="394" 
d="M211 707c92 0 162 -46 162 -115c0 -50 -37 -96 -87 -143l-58 -54h149v-115h-349v93l152 149c15 16 29 35 29 48c0 11 -8 16 -23 16c-32 0 -76 -21 -119 -54l-58 108c65 42 131 67 202 67z" />
    <glyph glyph-name="three.numr" horiz-adv-x="374" 
d="M249 536l19 -5c52 -13 92 -54 92 -117c0 -82 -70 -141 -179 -141c-68 0 -139 23 -182 58l62 114c33 -41 69 -61 107 -61c26 0 39 9 39 30s-13 31 -39 31h-82v78l78 68h-142v108h318v-84z" />
    <glyph glyph-name="four.numr" horiz-adv-x="432" 
d="M227 464v76h145v-76h55v-107h-55v-77h-145v77h-208v98l126 246h149l-116 -237h49z" />
    <glyph glyph-name="five.numr" horiz-adv-x="396" 
d="M202 551c108 0 178 -49 178 -127c0 -91 -75 -151 -190 -151c-64 0 -137 23 -186 57l61 113l-20 1v257h314v-115h-171v-33c1 -1 13 -2 14 -2zM171 384c27 0 40 9 40 30c0 19 -13 28 -41 28l-103 1c31 -40 65 -59 104 -59z" />
    <glyph glyph-name="six.numr" horiz-adv-x="419" 
d="M245 707c55 0 117 -15 155 -38l-59 -105c-23 19 -52 28 -87 28c-52 0 -79 -17 -80 -54c19 13 47 24 87 24c86 0 143 -57 143 -139c0 -91 -70 -150 -176 -150c-126 0 -203 84 -203 213c0 134 87 221 220 221zM223 454c-24 0 -36 -9 -36 -31c0 -23 12 -30 36 -30
c25 0 36 9 36 31c0 20 -11 30 -36 30z" />
    <glyph glyph-name="seven.numr" horiz-adv-x="401" 
d="M244 280h-165l141 306h-61v-58h-137v173h371v-100z" />
    <glyph glyph-name="eight.numr" horiz-adv-x="424" 
d="M211 707c104 0 171 -47 171 -119c0 -30 -18 -63 -44 -83c41 -21 68 -63 68 -105c0 -77 -76 -127 -194 -127s-194 50 -194 124c0 44 30 87 76 108c-31 22 -52 57 -52 88c0 69 67 114 169 114zM212 610c-26 0 -39 -10 -39 -30c0 -18 13 -27 39 -27s39 9 39 27
c0 20 -13 30 -39 30zM212 446c-31 0 -46 -11 -46 -33s15 -32 46 -32s47 10 47 32s-16 33 -47 33z" />
    <glyph glyph-name="nine.numr" horiz-adv-x="419" 
d="M174 273c-56 0 -117 15 -155 39l59 104c23 -18 52 -27 87 -27c52 0 79 16 80 53c-19 -12 -47 -24 -87 -24c-86 0 -143 57 -143 140c0 91 70 149 176 149c126 0 203 -84 203 -213c0 -134 -87 -221 -220 -221zM196 527c24 0 36 8 36 30c0 24 -12 31 -36 31
c-25 0 -36 -9 -36 -31c0 -20 11 -30 36 -30z" />
    <glyph glyph-name="onesuperior" unicode="&#xb9;" horiz-adv-x="286" 
d="M80 280v302h-76v119h232v-421h-156z" />
    <glyph glyph-name="twosuperior" unicode="&#xb2;" horiz-adv-x="394" 
d="M211 707c92 0 162 -46 162 -115c0 -50 -37 -96 -87 -143l-58 -54h149v-115h-349v93l152 149c15 16 29 35 29 48c0 11 -8 16 -23 16c-32 0 -76 -21 -119 -54l-58 108c65 42 131 67 202 67z" />
    <glyph glyph-name="threesuperior" unicode="&#xb3;" horiz-adv-x="374" 
d="M249 536l19 -5c52 -13 92 -54 92 -117c0 -82 -70 -141 -179 -141c-68 0 -139 23 -182 58l62 114c33 -41 69 -61 107 -61c26 0 39 9 39 30s-13 31 -39 31h-82v78l78 68h-142v108h318v-84z" />
    <glyph glyph-name="asterisk" unicode="*" horiz-adv-x="406" 
d="M255 447l3 -88h-110l3 89l-76 -46l-55 94l78 43l-78 41l55 97l75 -47l-2 88h110l-2 -88l75 45l55 -95l-79 -41l79 -43l-55 -96z" />
    <glyph glyph-name="backslash" unicode="\" horiz-adv-x="373" 
d="M94 806l329 -910h-188l-329 910h188z" />
    <glyph glyph-name="bullet" unicode="&#x2022;" horiz-adv-x="368" 
d="M183 437c92 0 155 -63 155 -153c0 -92 -63 -155 -155 -155c-90 0 -153 63 -153 155c0 90 63 153 153 153z" />
    <glyph glyph-name="colon" unicode=":" horiz-adv-x="265" 
d="M132 494c61 0 103 -42 103 -102c0 -61 -42 -103 -103 -103c-60 0 -102 42 -102 103c0 60 42 102 102 102zM132 197c61 0 103 -42 103 -102c0 -61 -42 -103 -103 -103c-60 0 -102 42 -102 103c0 60 42 102 102 102z" />
    <glyph glyph-name="comma" unicode="," horiz-adv-x="265" 
d="M134 197c54 0 102 -35 102 -101c0 -31 -11 -57 -27 -80l-87 -126h-104l52 127c-27 18 -39 47 -39 78c0 60 43 102 103 102z" />
    <glyph glyph-name="ellipsis" unicode="&#x2026;" horiz-adv-x="745" 
d="M132 197c61 0 103 -42 103 -102c0 -61 -42 -103 -103 -103c-60 0 -102 42 -102 103c0 60 42 102 102 102zM372 197c61 0 103 -42 103 -102c0 -61 -42 -103 -103 -103c-60 0 -102 42 -102 103c0 60 42 102 102 102zM612 197c61 0 103 -42 103 -102
c0 -61 -42 -103 -103 -103c-60 0 -102 42 -102 103c0 60 42 102 102 102z" />
    <glyph glyph-name="exclam" unicode="!" horiz-adv-x="294" 
d="M254 517l-40 -259h-134l-40 259v184h214v-184zM142 197c61 0 103 -42 103 -102c0 -61 -42 -103 -103 -103c-60 0 -102 42 -102 103c0 60 42 102 102 102z" />
    <glyph glyph-name="exclamdown" unicode="&#xa1;" horiz-adv-x="294" 
d="M152 349c-61 0 -103 42 -103 102c0 61 42 103 103 103c60 0 102 -42 102 -103c0 -60 -42 -102 -102 -102zM40 29l40 259h134l40 -259v-184h-214v184z" />
    <glyph glyph-name="numbersign" unicode="#" horiz-adv-x="745" 
d="M592 401l-14 -110h130l-19 -153h-130l-17 -138h-160l17 138h-105l-17 -138h-160l17 138h-130l19 153h130l14 110h-129l18 153h130l18 147h160l-18 -147h105l18 147h160l-18 -147h130l-18 -153h-131zM432 401h-105l-14 -110h105z" />
    <glyph glyph-name="period" unicode="." horiz-adv-x="265" 
d="M132 197c61 0 103 -42 103 -102c0 -61 -42 -103 -103 -103c-60 0 -102 42 -102 103c0 60 42 102 102 102z" />
    <glyph glyph-name="periodcentered" unicode="&#xb7;" horiz-adv-x="265" 
d="M132 394c61 0 103 -42 103 -102c0 -61 -42 -103 -103 -103c-60 0 -102 42 -102 103c0 60 42 102 102 102z" />
    <glyph glyph-name="question" unicode="?" horiz-adv-x="498" 
d="M173 455h-172c0 161 91 256 247 256c145 0 230 -67 230 -182c0 -145 -150 -174 -150 -279h-167c0 149 110 165 110 242c0 29 -14 42 -44 42c-37 0 -54 -25 -54 -79zM241 197c61 0 103 -42 103 -102c0 -61 -42 -103 -103 -103c-60 0 -102 42 -102 103c0 60 42 102 102 102
z" />
    <glyph glyph-name="questiondown" unicode="&#xbf;" horiz-adv-x="498" 
d="M257 350c-61 0 -103 42 -103 102c0 61 42 103 103 103c60 0 102 -42 102 -103c0 -60 -42 -102 -102 -102zM325 92h172c0 -161 -91 -256 -247 -256c-145 0 -230 67 -230 182c0 145 150 174 150 279h167c0 -149 -110 -165 -110 -242c0 -29 14 -42 44 -42c37 0 54 25 54 79z
" />
    <glyph glyph-name="quotedbl" unicode="&#x22;" horiz-adv-x="509" 
d="M228 399h-168v302h168v-302zM449 399h-168v302h168v-302z" />
    <glyph glyph-name="quotesingle" unicode="'" horiz-adv-x="288" 
d="M228 399h-168v302h168v-302z" />
    <glyph glyph-name="semicolon" unicode=";" horiz-adv-x="265" 
d="M132 289c-60 0 -102 42 -102 103c0 60 42 102 102 102c61 0 103 -42 103 -102c0 -61 -42 -103 -103 -103zM134 197c54 0 102 -35 102 -101c0 -31 -11 -57 -27 -80l-87 -126h-104l52 127c-27 18 -39 47 -39 78c0 60 43 102 103 102z" />
    <glyph glyph-name="slash" unicode="/" horiz-adv-x="373" 
d="M138 -104h-188l329 910h188z" />
    <glyph glyph-name="underscore" unicode="_" horiz-adv-x="599" 
d="M599 -204h-599v120h599v-120z" />
    <glyph glyph-name="braceleft" unicode="{" horiz-adv-x="381" 
d="M290 520v-77c0 -80 -25 -117 -96 -134c71 -17 96 -54 96 -134v-77c0 -44 14 -59 81 -59v-165h-88c-145 0 -193 38 -193 153v163c0 26 -8 34 -31 34h-45v170h45c23 0 31 8 31 34v163c0 115 48 153 193 153h88v-165c-67 0 -81 -15 -81 -59z" />
    <glyph glyph-name="braceright" unicode="}" horiz-adv-x="381" 
d="M367 394v-170h-45c-23 0 -31 -8 -31 -34v-163c0 -115 -48 -153 -193 -153h-88v165c67 0 81 15 81 59v77c0 80 25 117 96 134c-71 17 -96 54 -96 134v77c0 44 -14 59 -81 59v165h88c145 0 193 -38 193 -153v-163c0 -26 8 -34 31 -34h45z" />
    <glyph glyph-name="bracketleft" unicode="[" horiz-adv-x="377" 
d="M367 576h-117v-534h117v-166h-317v866h317v-166z" />
    <glyph glyph-name="bracketright" unicode="]" horiz-adv-x="397" 
d="M347 742v-866h-317v166h117v534h-117v166h317z" />
    <glyph glyph-name="parenleft" unicode="(" horiz-adv-x="370" 
d="M180 742h201c-73 -120 -123 -273 -123 -433s50 -313 123 -433h-201c-86 120 -133 273 -133 433s47 313 133 433z" />
    <glyph glyph-name="parenright" unicode=")" horiz-adv-x="370" 
d="M-11 742h201c86 -120 133 -273 133 -433s-47 -313 -133 -433h-201c73 120 123 273 123 433s-50 313 -123 433z" />
    <glyph glyph-name="emdash" unicode="&#x2014;" horiz-adv-x="610" 
d="M610 209h-610v140h610v-140z" />
    <glyph glyph-name="endash" unicode="&#x2013;" horiz-adv-x="410" 
d="M410 209h-410v140h410v-140z" />
    <glyph glyph-name="hyphen" unicode="-" horiz-adv-x="380" 
d="M330 239h-280v140h280v-140z" />
    <glyph glyph-name="softhyphen" unicode="&#xad;" horiz-adv-x="380" 
d="M330 239h-280v140h280v-140z" />
    <glyph glyph-name="guillemotleft" unicode="&#xab;" horiz-adv-x="544" 
d="M181 273l106 -195h-180l-124 195l124 193h180zM440 273l106 -195h-180l-124 195l124 193h180z" />
    <glyph glyph-name="guillemotright" unicode="&#xbb;" horiz-adv-x="544" 
d="M104 271l-106 195h180l124 -195l-124 -193h-180zM363 271l-106 195h180l124 -195l-124 -193h-180z" />
    <glyph glyph-name="guilsinglleft" unicode="&#x2039;" horiz-adv-x="285" 
d="M181 273l106 -195h-180l-124 195l124 193h180z" />
    <glyph glyph-name="guilsinglright" unicode="&#x203a;" horiz-adv-x="285" 
d="M104 271l-106 195h180l124 -195l-124 -193h-180z" />
    <glyph glyph-name="quotedblbase" unicode="&#x201e;" horiz-adv-x="483" 
d="M134 197c54 0 102 -35 102 -101c0 -31 -11 -57 -27 -80l-87 -126h-104l52 127c-27 18 -39 47 -39 78c0 60 43 102 103 102zM352 197c54 0 102 -35 102 -101c0 -31 -11 -57 -27 -80l-87 -126h-104l52 127c-27 18 -39 47 -39 78c0 60 43 102 103 102z" />
    <glyph glyph-name="quotedblleft" unicode="&#x201c;" horiz-adv-x="483" 
d="M236 701l-52 -127c27 -18 39 -47 39 -78c0 -60 -43 -102 -103 -102c-54 0 -102 35 -102 101c0 31 11 57 27 80l87 126h104zM454 701l-52 -127c27 -18 39 -47 39 -78c0 -60 -43 -102 -103 -102c-54 0 -102 35 -102 101c0 31 11 57 27 80l87 126h104z" />
    <glyph glyph-name="quotedblright" unicode="&#x201d;" horiz-adv-x="483" 
d="M134 701c54 0 102 -35 102 -101c0 -31 -11 -57 -27 -80l-87 -126h-104l52 127c-27 18 -39 47 -39 78c0 60 43 102 103 102zM352 701c54 0 102 -35 102 -101c0 -31 -11 -57 -27 -80l-87 -126h-104l52 127c-27 18 -39 47 -39 78c0 60 43 102 103 102z" />
    <glyph glyph-name="quoteleft" unicode="&#x2018;" horiz-adv-x="265" 
d="M236 701l-52 -127c27 -18 39 -47 39 -78c0 -60 -43 -102 -103 -102c-54 0 -102 35 -102 101c0 31 11 57 27 80l87 126h104z" />
    <glyph glyph-name="quoteright" unicode="&#x2019;" horiz-adv-x="265" 
d="M134 701c54 0 102 -35 102 -101c0 -31 -11 -57 -27 -80l-87 -126h-104l52 127c-27 18 -39 47 -39 78c0 60 43 102 103 102z" />
    <glyph glyph-name="quotesinglbase" unicode="&#x201a;" horiz-adv-x="265" 
d="M134 197c54 0 102 -35 102 -101c0 -31 -11 -57 -27 -80l-87 -126h-104l52 127c-27 18 -39 47 -39 78c0 60 43 102 103 102z" />
    <glyph glyph-name="space" unicode=" " horiz-adv-x="209" 
 />
    <glyph glyph-name="nbspace" unicode="&#xa0;" horiz-adv-x="209" 
 />
    <glyph glyph-name="florin" unicode="&#x192;" horiz-adv-x="444" 
d="M392 578c-32 1 -54 -17 -58 -46l-8 -65h106l-17 -142h-106l-42 -343c-14 -114 -108 -187 -240 -186c-48 0 -103 15 -134 39l54 154c15 -12 36 -19 52 -19c26 -1 44 17 48 46l38 309h-75l17 142h76l12 99c14 114 108 187 239 186c60 0 125 -15 165 -39l-74 -154
c-16 12 -37 19 -53 19z" />
    <glyph glyph-name="Euro" unicode="&#x20ac;" horiz-adv-x="774" 
d="M484 193c50 0 113 31 159 80l134 -143c-78 -85 -197 -140 -305 -140c-178 0 -315 105 -357 259h-95v82h82l-1 21c0 8 0 17 1 25h-82v81h96c45 149 185 250 365 250c107 0 224 -50 296 -128l-134 -159c-42 57 -105 94 -159 94c-48 0 -88 -21 -114 -57h202v-81h-232
c-1 -7 -1 -14 -1 -22s0 -16 1 -24h232v-82h-200c26 -35 65 -56 112 -56z" />
    <glyph glyph-name="cent" unicode="&#xa2;" horiz-adv-x="561" 
d="M314 170c32 0 55 18 67 59l182 -84c-29 -71 -88 -120 -167 -141v-169h-166v164c-133 26 -215 128 -215 272c0 146 83 249 215 277v166h166v-172c75 -22 134 -72 167 -145l-179 -76c-14 33 -38 52 -70 52c-44 0 -72 -40 -72 -101c0 -62 28 -102 72 -102z" />
    <glyph glyph-name="currency" unicode="&#xa4;" horiz-adv-x="693" 
d="M600 323c0 -39 -9 -76 -25 -109l103 -103l-125 -125l-105 105c-31 -14 -66 -22 -102 -22s-71 8 -102 21l-104 -104l-125 125l102 102c-16 33 -25 71 -25 110c0 36 8 71 22 102l-99 99l125 125l97 -97c33 16 70 25 109 25c40 0 77 -9 110 -25l97 97l125 -125l-99 -99
c13 -31 21 -66 21 -102zM346 244c44 0 80 35 80 79s-36 80 -80 80s-79 -36 -79 -80s35 -79 79 -79z" />
    <glyph glyph-name="dollar" unicode="$" horiz-adv-x="664" 
d="M291 505c0 -88 363 -33 363 -287c0 -139 -109 -209 -245 -223v-160h-166v170c-86 16 -171 51 -235 100l86 174c72 -60 196 -109 267 -109c34 0 56 11 56 36c0 91 -363 31 -363 277c0 109 71 186 189 215v166h166v-156c93 -8 184 -38 250 -80l-84 -176
c-71 39 -180 82 -241 82c-26 0 -43 -8 -43 -29z" />
    <glyph glyph-name="sterling" unicode="&#xa3;" horiz-adv-x="566" 
d="M323 173h238v-173h-541v173h70v91h-70v152h70v48c0 157 95 247 261 247c85 0 167 -29 225 -82l-84 -170c-43 39 -82 59 -116 59c-35 0 -53 -19 -53 -59v-43h159v-152h-159v-91z" />
    <glyph glyph-name="yen" unicode="&#xa5;" horiz-adv-x="699" 
d="M550 357h85v-81h-127l-24 -46h151v-82h-157v-148h-232v148h-182v82h173l-24 46h-149v81h106l-180 344h231l141 -270l136 270h231z" />
    <glyph glyph-name="approxequal" unicode="&#x2248;" horiz-adv-x="520" 
d="M175 546c69 0 98 -44 124 -44c18 0 26 13 26 41h148c0 -137 -40 -201 -127 -201c-69 0 -98 44 -124 44c-18 0 -26 -13 -26 -41h-149c0 137 41 201 128 201zM175 306c69 0 98 -44 124 -44c18 0 26 13 26 41h148c0 -137 -40 -201 -127 -201c-69 0 -98 44 -124 44
c-18 0 -26 -13 -26 -41h-149c0 137 41 201 128 201z" />
    <glyph glyph-name="asciitilde" unicode="~" horiz-adv-x="520" 
d="M175 430c69 0 98 -44 124 -44c18 0 26 13 26 41h148c0 -137 -40 -201 -127 -201c-69 0 -98 44 -124 44c-18 0 -26 -13 -26 -41h-149c0 137 41 201 128 201z" />
    <glyph glyph-name="bulletoperator" unicode="&#x2219;" horiz-adv-x="368" 
d="M183 437c92 0 155 -63 155 -153c0 -92 -63 -155 -155 -155c-90 0 -153 63 -153 155c0 90 63 153 153 153z" />
    <glyph glyph-name="divide" unicode="&#xf7;" horiz-adv-x="520" 
d="M251 600c54 0 91 -38 91 -92c0 -53 -37 -91 -91 -91s-91 38 -91 91c0 54 37 92 91 92zM490 259h-460v140h460v-140zM251 240c54 0 91 -38 91 -92c0 -53 -37 -91 -91 -91s-91 38 -91 91c0 54 37 92 91 92z" />
    <glyph glyph-name="divisionslash" unicode="&#x2215;" horiz-adv-x="373" 
d="M138 -104h-188l329 910h188z" />
    <glyph glyph-name="equal" unicode="=" horiz-adv-x="520" 
d="M490 369h-460v140h460v-140zM490 149h-460v140h460v-140z" />
    <glyph glyph-name="greater" unicode="&#x3e;" horiz-adv-x="520" 
d="M30 215l316 118l-316 118v156l460 -185v-178l-460 -185v156z" />
    <glyph glyph-name="greaterequal" unicode="&#x2265;" horiz-adv-x="520" 
d="M30 303l316 112l-316 112v149l460 -176v-169l-460 -176v148zM490 -16h-460v140h460v-140z" />
    <glyph glyph-name="infinity" unicode="&#x221e;" horiz-adv-x="835" 
d="M606 524c124 0 214 -96 214 -227c0 -132 -90 -228 -214 -228c-92 0 -145 52 -187 112c-41 -60 -95 -112 -191 -112c-123 0 -213 96 -213 227c0 132 90 228 213 228c92 0 145 -52 187 -112c41 60 95 112 191 112zM228 219c53 0 87 34 117 79c-30 44 -65 76 -117 76
c-36 0 -63 -33 -63 -78s27 -77 63 -77zM606 219c37 0 64 33 64 78s-27 77 -64 77c-53 0 -87 -34 -117 -79c31 -44 65 -76 117 -76z" />
    <glyph glyph-name="integral" unicode="&#x222b;" horiz-adv-x="434" 
d="M454 835l-20 -142c-25 9 -42 12 -61 12c-60 0 -83 -26 -83 -95s28 -405 28 -485c0 -197 -62 -273 -222 -273c-56 0 -92 8 -126 30l25 143c31 -15 51 -21 72 -21c63 0 88 29 88 105c0 80 -30 407 -30 480c0 196 61 271 220 271c38 0 68 -7 109 -25z" />
    <glyph glyph-name="less" unicode="&#x3c;" horiz-adv-x="520" 
d="M490 441l-316 -118l316 -118v-156l-460 185v178l460 185v-156z" />
    <glyph glyph-name="lessequal" unicode="&#x2264;" horiz-adv-x="520" 
d="M490 518l-316 -112l316 -112v-148l-460 175v169l460 176v-148zM490 -16h-460v140h460v-140z" />
    <glyph glyph-name="logicalnot" unicode="&#xac;" horiz-adv-x="593" 
d="M540 449v-320h-160v180h-350v140h510z" />
    <glyph glyph-name="minus" unicode="&#x2212;" horiz-adv-x="520" 
d="M490 259h-460v140h460v-140z" />
    <glyph glyph-name="multiply" unicode="&#xd7;" horiz-adv-x="520" 
d="M359 329l113 -113l-99 -99l-113 113l-113 -113l-99 99l113 113l-113 113l99 99l113 -113l113 113l99 -99z" />
    <glyph glyph-name="notequal" unicode="&#x2260;" horiz-adv-x="520" 
d="M353 369l-25 -80h162v-140h-206l-43 -136h-168l43 136h-86v140h130l25 80h-155v140h199l41 131h168l-41 -131h93v-140h-137z" />
    <glyph glyph-name="partialdiff" unicode="&#x2202;" horiz-adv-x="648" 
d="M280 711c202 0 333 -141 333 -358c0 -221 -120 -363 -318 -363c-165 0 -275 96 -275 247c0 137 94 231 237 231c63 0 107 -23 135 -52c0 78 -43 117 -126 117c-59 0 -109 -18 -150 -56l-88 162c64 44 162 72 252 72zM302 300c-45 0 -67 -21 -67 -62c0 -43 23 -64 68 -64
c46 0 69 21 69 63s-24 63 -70 63z" />
    <glyph glyph-name="percent" unicode="%" horiz-adv-x="1068" 
d="M230 705c124 0 204 -84 204 -214c0 -131 -80 -216 -204 -216s-205 85 -205 216c0 130 81 214 205 214zM186 0l487 701h209l-487 -701h-209zM230 587c-39 0 -64 -38 -64 -96c0 -59 25 -97 64 -97s64 38 64 97c0 58 -25 96 -64 96zM839 425c124 0 204 -84 204 -214
c0 -131 -80 -216 -204 -216s-205 85 -205 216c0 130 81 214 205 214zM839 307c-39 0 -64 -38 -64 -96c0 -59 25 -97 64 -97s64 38 64 97c0 58 -25 96 -64 96z" />
    <glyph glyph-name="perthousand" unicode="&#x2030;" horiz-adv-x="1527" 
d="M230 705c124 0 204 -84 204 -214c0 -131 -80 -216 -204 -216s-205 85 -205 216c0 130 81 214 205 214zM186 0l487 701h209l-487 -701h-209zM230 587c-39 0 -64 -38 -64 -96c0 -59 25 -97 64 -97s64 38 64 97c0 58 -25 96 -64 96zM839 425c124 0 204 -84 204 -214
c0 -131 -80 -216 -204 -216s-205 85 -205 216c0 130 81 214 205 214zM1298 425c124 0 204 -84 204 -214c0 -131 -80 -216 -204 -216s-205 85 -205 216c0 130 81 214 205 214zM839 307c-39 0 -64 -38 -64 -96c0 -59 25 -97 64 -97s64 38 64 97c0 58 -25 96 -64 96zM1298 307
c-39 0 -64 -38 -64 -96c0 -59 25 -97 64 -97s64 38 64 97c0 58 -25 96 -64 96z" />
    <glyph glyph-name="plus" unicode="+" horiz-adv-x="520" 
d="M490 259h-160v-160h-140v160h-160v140h160v160h140v-160h160v-140z" />
    <glyph glyph-name="plusminus" unicode="&#xb1;" horiz-adv-x="520" 
d="M490 478v-133h-160v-152h-140v152h-160v133h160v152h140v-152h160zM30 124h460v-140h-460v140z" />
    <glyph glyph-name="product" unicode="&#x220f;" horiz-adv-x="734" 
d="M684 -194h-225v760h-184v-760h-225v936h634v-936z" />
    <glyph glyph-name="radical" unicode="&#x221a;" horiz-adv-x="725" 
d="M277 418l91 -356l168 680h214l-263 -903h-240l-124 403h-129v176h283z" />
    <glyph glyph-name="summation" unicode="&#x2211;" horiz-adv-x="621" 
d="M603 552h-299l200 -252l-200 -245h309v-193h-590v158l236 279l-223 284v162h567v-193z" />
    <glyph glyph-name="lozenge" unicode="&#x25ca;" horiz-adv-x="482" 
d="M467 330l-227 -339l-225 339l227 336zM158 330l83 -125l83 125l-83 123z" />
    <glyph glyph-name="ampersand" unicode="&#x26;" horiz-adv-x="706" 
d="M586 -40l-91 87c-56 -37 -119 -57 -187 -57c-148 0 -255 87 -255 210c0 90 59 142 128 182c-38 57 -51 101 -51 150c0 111 83 179 216 179c129 0 221 -69 221 -167c0 -99 -78 -151 -159 -192c21 -23 46 -49 75 -78c15 29 27 62 35 98l141 -101c-14 -42 -33 -79 -56 -113
l96 -89zM304 533c0 -23 6 -47 23 -76c38 23 65 49 65 85c0 27 -18 45 -44 45c-28 0 -44 -22 -44 -54zM317 145c21 0 42 5 62 15c-44 44 -80 82 -111 115c-20 -17 -32 -35 -32 -58c0 -44 34 -72 81 -72z" />
    <glyph glyph-name="asciicircum" unicode="^" horiz-adv-x="608" 
d="M422 143l-118 261l-118 -261h-156l185 380h178l185 -380h-156z" />
    <glyph glyph-name="at" unicode="@" horiz-adv-x="865" 
d="M439 698c234 0 411 -179 411 -422c0 -147 -81 -243 -192 -243c-60 0 -103 22 -118 74l-2 7c-37 -52 -86 -71 -132 -71c-104 0 -207 90 -207 228c0 125 74 232 192 232c72 0 115 -53 115 -53v41h135v-325c0 -34 12 -44 30 -44c35 0 72 62 72 151c0 182 -109 326 -304 326
c-174 0 -316 -149 -316 -331c0 -179 132 -314 304 -314c56 0 128 19 184 63l51 -86c-58 -47 -157 -76 -235 -76c-234 0 -412 176 -412 413c0 241 189 430 424 430zM419 379c-44 0 -72 -48 -72 -103c0 -59 27 -112 73 -112c50 0 77 51 77 111c0 57 -28 104 -78 104z" />
    <glyph glyph-name="bar" unicode="|" horiz-adv-x="326" 
d="M246 -103h-166v899h166v-899z" />
    <glyph glyph-name="brokenbar" unicode="&#xa6;" horiz-adv-x="326" 
d="M246 457h-166v339h166v-339zM246 -103h-166v339h166v-339z" />
    <glyph glyph-name="copyright" unicode="&#xa9;" horiz-adv-x="707" 
d="M354 689c190 0 338 -153 338 -339c0 -185 -149 -341 -340 -341c-190 0 -337 154 -337 339s148 341 339 341zM354 589c-135 0 -239 -110 -239 -241s103 -239 237 -239c136 0 240 110 240 241s-104 239 -238 239zM361 510c48 0 101 -23 133 -58l-60 -72
c-19 26 -47 43 -71 43c-38 0 -66 -30 -66 -72c0 -43 28 -73 66 -73c22 0 50 14 71 36l60 -64c-35 -39 -88 -63 -137 -63c-97 0 -167 68 -167 162c0 93 72 161 171 161z" />
    <glyph glyph-name="dagger" unicode="&#x2020;" horiz-adv-x="608" 
d="M413 503h175v-176h-175v-512h-225v512h-168v176h168v196h225v-196z" />
    <glyph glyph-name="daggerdbl" unicode="&#x2021;" horiz-adv-x="608" 
d="M413 327v-134h175v-176h-175v-202h-225v202h-168v176h168v134h-168v176h168v196h225v-196h175v-176h-175z" />
    <glyph glyph-name="degree" unicode="&#xb0;" horiz-adv-x="400" 
d="M207 824c67 0 121 -54 121 -121s-54 -121 -121 -121s-121 54 -121 121s54 121 121 121zM207 741c-21 0 -38 -17 -38 -38s17 -38 38 -38s38 17 38 38s-17 38 -38 38z" />
    <glyph glyph-name="estimated" unicode="&#x212e;" horiz-adv-x="809" 
d="M740 312h-543c-3 0 -5 -1 -5 -4v-164c0 -8 4 -14 8 -19c51 -55 125 -89 206 -89c86 0 164 39 215 99h49c-60 -70 -158 -117 -265 -117c-185 0 -335 135 -335 301c0 167 150 302 335 302s335 -135 335 -302v-7zM618 333v165c0 8 -4 15 -9 20c-52 52 -124 85 -203 85
c-81 0 -153 -34 -205 -88c-5 -5 -9 -12 -9 -20v-162c0 -3 2 -5 5 -5h416c3 0 5 2 5 5z" />
    <glyph glyph-name="literSign" unicode="&#x2113;" horiz-adv-x="478" 
d="M324 711c84 0 130 -55 130 -144c0 -165 -157 -283 -234 -347c-10 -65 13 -87 48 -87c46 0 83 41 110 74l61 -76c-62 -101 -140 -138 -219 -138c-93 0 -142 51 -155 138l-43 -24l-29 86l85 57l36 217c30 171 113 244 210 244zM318 602c-20 0 -39 -29 -53 -115l-19 -116
c31 39 92 116 92 193c0 21 -5 38 -20 38z" />
    <glyph glyph-name="paragraph" unicode="&#xb6;" horiz-adv-x="682" 
d="M632 -105h-166v723h-72v-723h-166v398h-22c-172 0 -216 134 -216 220c0 116 71 229 259 229h383v-847z" />
    <glyph glyph-name="registered" unicode="&#xae;" horiz-adv-x="707" 
d="M354 689c190 0 338 -153 338 -339c0 -185 -149 -341 -340 -341c-190 0 -337 154 -337 339s148 341 339 341zM352 109c136 0 240 110 240 241s-104 239 -238 239c-135 0 -239 -110 -239 -241s103 -239 237 -239zM494 405c0 -44 -17 -77 -48 -96l60 -98h-113l-36 78h-33
v-78h-100v301h141c82 0 129 -39 129 -107zM324 365h41c22 0 34 13 34 36s-12 36 -34 36h-41v-72z" />
    <glyph glyph-name="section" unicode="&#xa7;" horiz-adv-x="586" 
d="M303 694c82 0 169 -23 254 -69l-67 -139c-83 40 -147 60 -185 60c-23 0 -33 -7 -33 -16c0 -52 295 -47 295 -222c0 -60 -33 -106 -91 -137c30 -25 46 -43 46 -89c0 -101 -92 -172 -244 -172c-92 0 -188 26 -266 78l61 140c75 -45 146 -68 200 -68c28 0 38 6 38 15
c0 48 -289 43 -289 218c0 61 33 107 91 138c-39 28 -46 54 -46 88c0 102 90 175 236 175zM274 329c-33 0 -48 -8 -48 -21c0 -19 34 -31 78 -31c36 0 53 8 53 20c0 19 -40 32 -83 32z" />
    <glyph glyph-name="trademark" unicode="&#x2122;" horiz-adv-x="921" 
d="M353 573h-102v-293h-161v293h-101v128h364v-128zM890 280h-144v192l-54 -152h-111l-54 152v-192h-144v421h174l79 -192l80 192h174v-421z" />
    <glyph glyph-name="acute" unicode="&#xb4;" horiz-adv-x="350" 
d="M324 720l-137 -129h-160l107 189z" />
    <glyph glyph-name="breve" unicode="&#x2d8;" horiz-adv-x="350" 
d="M224 769h135c-5 -106 -77 -174 -184 -174s-179 68 -184 174h135c3 -30 22 -50 49 -50s46 20 49 50z" />
    <glyph glyph-name="caron" unicode="&#x2c7;" horiz-adv-x="350" 
d="M-50 769h165l60 -90l60 90h165l-133 -178h-184z" />
    <glyph glyph-name="cedilla" unicode="&#xb8;" horiz-adv-x="350" 
d="M267 18l-37 -69c40 -14 66 -47 66 -83c0 -69 -55 -113 -141 -113c-30 0 -70 13 -101 34l40 90c10 -12 26 -20 41 -20c23 0 38 13 38 33c0 21 -17 34 -43 34c-9 0 -24 -2 -37 -5l51 99h123z" />
    <glyph glyph-name="circumflex" unicode="&#x2c6;" horiz-adv-x="350" 
d="M380 607h-150l-55 82l-55 -82h-150l121 162h168z" />
    <glyph glyph-name="dieresis" unicode="&#xa8;" horiz-adv-x="350" 
d="M71 790c54 0 91 -38 91 -92c0 -53 -37 -91 -91 -91s-91 38 -91 91c0 54 37 92 91 92zM279 790c54 0 91 -38 91 -92c0 -53 -37 -91 -91 -91s-91 38 -91 91c0 54 37 92 91 92z" />
    <glyph glyph-name="dotaccent" unicode="&#x2d9;" horiz-adv-x="350" 
d="M175 817c67 0 114 -47 114 -114s-47 -114 -114 -114s-114 47 -114 114s47 114 114 114z" />
    <glyph glyph-name="grave" unicode="`" horiz-adv-x="350" 
d="M324 591h-160l-137 129l190 60z" />
    <glyph glyph-name="hungarumlaut" unicode="&#x2dd;" horiz-adv-x="350" 
d="M189 727l-89 -136h-160l87 189zM410 727l-89 -136h-160l87 189z" />
    <glyph glyph-name="macron" unicode="&#xaf;" horiz-adv-x="350" 
d="M325 624h-300v148h300v-148z" />
    <glyph glyph-name="ogonek" unicode="&#x2db;" horiz-adv-x="350" 
d="M129 24h105c-31 -43 -55 -83 -55 -103c0 -10 6 -15 14 -15c13 0 26 11 37 30l55 -64c-28 -51 -71 -76 -120 -76c-42 0 -96 19 -96 88c0 50 29 99 60 140z" />
    <glyph glyph-name="ring" unicode="&#x2da;" horiz-adv-x="350" 
d="M175 827c69 0 124 -55 124 -124s-55 -124 -124 -124s-124 55 -124 124s55 124 124 124zM175 742c-22 0 -39 -17 -39 -39s17 -39 39 -39s39 17 39 39s-17 39 -39 39z" />
    <glyph glyph-name="tilde" unicode="&#x2dc;" horiz-adv-x="350" 
d="M98 797c62 0 89 -40 112 -40c17 0 24 12 24 37h135c0 -124 -37 -182 -116 -182c-63 0 -89 40 -113 40c-16 0 -23 -12 -23 -38h-136c0 125 38 183 117 183z" />
    <glyph glyph-name="commaaccent" unicode="&#x326;" horiz-adv-x="0" 
d="M134 -33c54 0 102 -35 102 -101c0 -31 -11 -57 -27 -80l-87 -126h-104l52 127c-27 18 -39 47 -39 78c0 60 43 102 103 102z" />
    <glyph glyph-name="firsttonechinese" unicode="&#x2c9;" horiz-adv-x="350" 
d="M325 624h-300v148h300v-148z" />
    </font>
</defs>
</svg>
